#TITLE:torino uta;
#SUBTITLE:- zebdal -;
#ARTIST:Dj Sharpnel;
#TITLETRANSLIT:ToriNoUta;
#SUBTITLETRANSLIT:;
#ARTISTTRANSLIT:;
#CREDIT:;
#BANNER:Torino Uta-bann.jpg;
#BACKGROUND:Torino Uta-bg.jpg;
#LYRICSPATH:;
#CDTITLE:cdtitle.png;
#MUSIC:DJ Sharpnel - Torinouta (M-Project Remix).mp3;
#OFFSET:-0.180;
#SAMPLESTART:100.000;
#SAMPLELENGTH:12.000;
#SELECTABLE:YES;
#BPMS:0.000=165.800;
#STOPS:25.500=1.120
,386.500=1.120
;
#BGCHANGES:;
// cache tags:
#FIRSTBEAT:0.000;
#LASTBEAT:730.250;
#SONGFILENAME:Songs/New Folder/Torinouta (M-Project Remix)/DJ Sharpnel - Torinouta (M-Project Remix).sm;
#HASMUSIC:1;
#HASBANNER:1;
#MUSICLENGTH:265.776;
// end cache tags

//---------------pump-single - ----------------
#NOTES:
     pump-single:
     :
     Hard:
     12:
     0.963,1.000,0.395,0.079,1.000,1664.000,105.000,21.000,0.000,2.000:
00000
00000
00000
00000
00000
00000
00000
00000
00000
00000
00000
00000
00000
00000
00000
00000
00000
00000
00000
00000
00000
00000
00000
00000
00000
00000
00000
00000
00000
00000
00000
00000
00000
00000
00000
00000
00000
00000
00000
00000
00000
00000
00000
10000
00000
00000
00000
00000
00000
00000
00000
00000
00000
00000
00000
00000
00000
00000
00000
00000
00000
00000
00000
00000
,
00000
00000
00000
00000
00000
00000
00000
00000
00000
00000
00000
00000
00000
00000
00000
00000
00000
00000
00000
00000
10000
00000
00000
00000
00000
00000
00000
00100
00000
00000
00000
00000
00000
00000
00000
00000
00001
00000
00000
00000
00000
00000
00000
00000
00000
00000
00000
00000
00000
00000
00000
00000
00000
00000
00000
00000
00000
00000
00000
00000
00000
00000
00000
00000
,
00000
00000
00000
00000
00000
00000
00000
00000
00000
00000
00000
00000
00000
00010
00000
00000
00000
00000
00000
00000
00100
00000
00000
00000
00000
00000
01000
00000
00000
00000
00000
00000
00000
00000
00000
10000
00000
00000
00000
00000
00000
00000
00000
00000
00000
00000
00000
00000
00000
00000
10000
00000
00000
00000
00000
00000
00000
01000
00000
00000
00000
00000
00000
00000
,
00000
00000
00100
00000
00000
00000
00000
00000
00000
00000
00000
00000
00000
00000
00000
00000
00000
00001
00000
00000
00000
00000
00000
00000
00000
00001
00000
00000
00000
00000
00000
00000
00000
00010
00000
00000
00000
00000
00000
00000
00000
00000
00000
00000
00000
00000
00000
00000
00000
00000
00100
00000
00000
00000
00000
00000
01000
00000
00000
00000
00000
00000
00000
00000
,
00000
00000
00100
00000
00000
01000
00000
00000
00000
00100
00000
00000
01000
00000
00000
00000
00100
00000
00000
00000
00000
01000
00000
00000
00000
00000
00000
00000
00010
00000
00000
00000
00000
00000
00000
00000
00000
00001
00000
00000
00000
00000
00000
00000
00000
00000
00000
00000
00000
00000
00000
00000
00001
00000
00000
00000
00000
00000
00000
00000
10000
00000
00000
00000
,
00000
00000
00000
00000
00000
10000
00000
00000
00000
01000
00000
00000
00000
00100
00000
00000
00000
00010
00000
00000
00000
00000
00000
00000
00000
00010
00000
00000
00000
00010
00000
00000
,
00000
00000
00000
00000
00000
00000
00000
00000
00000
00010
00000
00000
00000
00000
00100
00000
00000
01000
00000
00000
00000
00000
00000
00000
00000
00000
10000
00000
00000
00000
00000
00000
00000
00000
00001
00000
00000
00000
00000
00000
00000
00000
00000
00000
00000
00000
00000
00000
00000
00000
00000
00001
00000
00000
00000
00000
00000
10000
00000
00000
00000
00000
00000
00000
,
00000
00000
00000
00000
00000
00000
00000
00000
00000
10000
00000
00000
00000
00000
00000
00000
00000
00000
00100
00000
00000
00000
00000
00000
00000
01000
00000
00000
00000
00000
00000
00000
00000
00000
00000
00000
00000
00100
00000
00000
00000
01000
00000
00100
00000
00000
00000
01000
00000
00000
00000
00000
00010
00000
00000
00000
00000
00100
00010
00000
00000
00000
00000
00000
,
00000
00000
00001
00000
00100
00000
00000
00000
00000
00001
00000
00000
00100
00000
00000
00000
00000
00000
10000
00000
00100
00000
00000
00000
00000
00000
00000
10000
00000
00000
00000
01000
00000
00000
00000
00000
00000
00000
00200
00000
00000
00000
00000
00000
00000
00000
00000
00000
00000
00000
00000
00000
00000
00000
00000
00000
00000
00000
00000
01300
00000
00000
00000
00000
,
00000
00000
00000
00100
00000
00000
00000
00000
00000
02000
00000
00000
00000
00000
00000
00000
00000
00000
00000
00000
00000
00000
00000
00000
00000
00000
00000
00000
00000
00000
00000
00000
00000
00000
00000
00000
00000
00000
00000
03000
00000
00000
00000
00000
00000
00000
00000
00000
00000
00000
00000
00010
00000
00000
00000
00000
00000
00000
00100
00000
00000
00000
00000
00000
,
00000
00000
00001
00000
00000
00000
00000
00000
00000
00000
10000
00000
00000
00000
00000
00000
00000
00000
00100
00000
00000
00000
00000
00000
01000
00000
00000
00000
00000
00000
00000
00000
00000
00100
00000
00000
00000
00000
00000
00000
00000
00000
00000
00000
00000
00000
00000
00000
00000
00000
00000
00000
00000
00100
00000
00000
00000
00000
01000
00000
00000
00100
00000
00000
,
00000
01000
00000
00000
00000
00000
00000
00000
00000
00000
00000
00000
00000
00000
00000
00000
00000
00000
10000
00000
00000
00000
00000
00000
00000
00000
00001
00000
00000
00000
00000
00000
00000
00000
00000
00000
10000
00000
00000
00000
00000
00000
00000
00000
00000
00000
00000
00000
00000
00000
00000
00100
00000
00000
00000
00000
00000
00000
00000
00010
00000
00000
00000
00000
,
00000
00000
00000
01000
00000
00000
00000
00000
00000
00000
00000
00100
00000
00000
00000
00000
00000
00000
00000
00000
10000
00000
00000
00000
00000
00000
00000
00001
00000
00000
00000
00000
00000
00000
00000
00000
00001
00000
00000
00000
00000
00000
00000
00000
00000
00000
00000
00000
00000
00000
10000
00000
00000
00000
00000
00000
00000
00000
00000
01000
00000
00000
00000
00100
,
00000
00000
00010
00000
00000
00000
00000
00001
00000
00000
00000
00000
00000
00000
00000
00000
00000
00000
00000
00000
00001
00000
00000
00000
00000
00000
00000
00000
00001
00000
00000
00000
00000
00000
00000
00000
00000
10000
00000
00000
00000
00000
00000
00000
00000
00000
00000
00000
00000
00000
00000
01000
00000
00000
00000
00000
00000
00000
00000
00100
00000
00000
00000
00000
,
00000
00000
00000
00000
00010
00000
00000
00000
00000
00000
00000
00100
00000
00000
00000
00000
00000
00000
00000
00000
01000
00000
00000
00000
00000
00000
00000
00000
10000
00000
00000
00000
00000
00000
00000
00000
01000
00000
00000
00000
00000
00000
00000
00000
00000
00000
00000
00000
00000
00000
00000
00100
00000
00000
00000
00000
00000
00000
00000
00100
00000
00000
00000
00000
,
00000
00000
00000
01000
00000
00000
00000
00000
00000
00000
00000
00000
00000
00000
00000
00000
00000
00000
00010
00000
00000
00000
00000
00000
00000
00100
00000
00000
00000
00000
00000
00000
00000
00000
00000
00001
00000
00000
00000
00000
00000
00000
00000
00001
00000
00000
00000
00000
00000
00100
00000
00000
00000
00000
00000
00000
00000
00000
00000
10000
00000
00000
00000
00000
,
00000
00000
00000
00100
00000
00000
10000
00000
00000
00000
01000
00000
00000
00100
00000
00000
00000
00000
00000
00100
00000
00000
00000
00000
00000
00100
00000
00000
00000
00000
00000
00000
00000
00010
00000
00000
00000
00000
00000
00000
00001
00000
00000
00000
00000
00000
00000
00000
00010
00000
00000
00000
00000
00000
00000
00000
00000
00100
00000
00000
00000
01000
00000
00000
,
00001
00000
00000
00000
00000
00000
10000
00000
00000
00000
00000
00000
00100
00000
00000
00000
00000
00000
10000
00000
00000
00000
00000
00001
00000
00000
00000
00000
10000
00000
00000
00000
00000
00000
00100
00000
00000
00000
00000
00000
00001
00000
00000
00000
00000
00000
10000
00000
00000
00000
00100
00000
00000
00000
00000
00000
00000
00001
00000
00000
00000
00000
10000
00000
,
00000
00000
00000
00100
00000
00000
00000
00000
00000
00000
00001
00000
00000
00000
00000
10000
00000
00000
00000
00100
00000
00000
00000
00000
00000
00000
00000
00001
00000
00000
00000
00000
10000
00000
00000
00000
00100
00000
00000
00000
00000
00000
00001
00000
00000
00000
00000
10000
00000
00000
00000
00100
00000
00000
00000
00000
00000
00001
00000
00000
00000
00000
00000
10000
,
00000
00000
00100
00000
00000
00000
00000
00000
00000
00001
00000
00000
00000
00000
00000
10000
00000
00000
00100
00000
00000
00000
00000
00000
00001
00000
00000
00000
00000
10000
00000
00000
00000
00000
00000
00100
00000
00000
00000
00000
00000
10000
00000
00000
00000
00000
00000
00000
00000
00001
00000
00000
00000
00000
10000
00000
00000
00000
00000
00100
00000
00000
00000
00000
,
00000
00000
00001
00000
00100
00000
00000
00000
00000
00000
00100
00000
00000
00000
00000
00000
00000
00000
10001
00000
00000
00000
00000
00000
00000
00001
10000
00000
00000
00000
00000
00000
00000
00000
00000
10001
00000
00000
00000
00000
00000
00000
00000
00000
00000
00000
00000
00000
00000
00000
00100
00000
00000
01000
00000
00000
00000
00000
00010
00000
00000
00000
00000
00100
,
00000
00000
00000
00000
00000
10000
00000
00000
00000
00000
00000
00000
00000
00000
00001
00000
00000
00000
00000
00000
01000
00000
00000
00000
00000
00000
00000
00100
00000
00000
00000
00000
00000
00000
00000
00000
01010
00000
00000
00000
00000
00000
00000
00000
00000
00000
00000
00000
00000
00000
00000
00000
00100
00000
00000
00000
00000
00000
10000
00000
00001
00000
00000
00000
,
00000
00000
00000
00100
00000
00000
00000
10000
00000
00000
00001
00000
00000
00000
00000
00000
00000
01100
00000
00000
00000
00000
00000
00000
00000
00000
00000
00000
00000
00000
00000
00000
00000
00000
00000
00011
00000
00000
00000
00000
00000
00000
00000
00000
00000
00000
00000
00000
00000
00000
00000
00000
00000
00000
00000
00000
00100
00000
00000
00000
00000
00000
00000
00000
,
00000
00000
00000
10001
00000
00000
00000
00000
00000
00000
00000
00000
00000
00000
00000
00000
00000
00000
00000
00000
00000
00000
00000
00000
00000
00000
00000
11000
00000
00000
00000
00000
00000
00000
00000
00000
11100
00000
00000
00000
00000
00000
00000
00000
00000
00000
00000
00000
00000
00000
00000
00001
00000
00100
00000
00000
00000
00000
00000
00000
00000
00000
00000
00000
,
00000
00000
00000
00010
00000
00100
00000
01000
00000
00000
00000
10000
00001
00000
00000
00000
00010
00000
00000
00000
00100
00000
00000
00000
11000
00000
00000
00000
00000
00000
00000
00000
00000
00000
00000
00001
00000
10000
00000
00000
00000
00000
00001
00000
00000
00000
10000
00000
00000
00000
00000
00000
00010
00000
00000
00000
01000
00000
00000
00000
00100
00000
00000
00000
,
00000
01000
00000
00000
00100
00000
00000
00000
00000
01000
00000
00000
00010
00000
00000
00000
00000
00000
00000
00100
00000
00010
00000
00000
00000
00000
00000
00000
00000
00001
00000
00000
00000
00000
00000
00000
00000
00000
00000
00000
00000
00000
00000
00000
00000
00000
00000
00000
00000
00000
00000
10100
00000
00000
00000
00000
00000
00000
00000
00000
00000
00000
00000
00000
,
00000
00001
00000
00100
00000
00000
00000
00000
00000
00010
01000
00000
00000
00100
00000
00000
00000
00000
10000
00000
00001
00000
01000
00000
00010
00000
00000
00000
00100
00000
00000
10000
00000
00000
00000
00001
00000
00000
10000
00000
00000
00000
00001
00000
00000
00000
00000
10000
00000
00000
00000
00001
00000
00000
00000
00000
10000
00000
00000
00000
00000
00000
00000
00000
,
00000
00000
00000
00100
00000
00000
00000
00000
00000
00000
00000
00100
00000
00000
00000
00000
00000
00000
00000
01000
00000
00000
00000
00000
00000
00000
00000
00010
00000
00000
00000
00000
00000
00000
00000
00010
00000
00000
00000
00000
00000
00000
00100
00000
00000
00000
00000
00000
00000
00000
00001
00000
00000
00000
00000
00000
00000
00000
00001
00000
00000
00000
00000
00000
,
00000
10000
00000
00000
00000
00000
00000
00000
00000
00100
00000
00000
00000
00000
00000
00000
00000
10000
00000
00000
00000
00000
00000
00000
00000
00100
00000
00000
00000
00000
00000
00000
00000
01000
00000
00000
00000
00000
00000
00000
01000
00000
00000
00000
00000
00000
00000
00000
00000
00000
00010
00000
00000
00000
00000
00000
00000
00000
00000
00100
00000
00000
00000
00000
,
00000
00000
00000
00010
00000
00000
00000
00000
00000
00000
00000
00100
00000
00000
00000
00000
00000
00000
00000
00010
00000
00000
00000
00000
00000
00000
00000
00100
00000
00000
00000
00000
00000
00000
00000
10000
00000
00000
00000
00000
00000
00000
00000
00000
01000
00000
00000
00000
00000
00000
00000
00000
00100
00000
00000
00000
00000
00000
00000
10000
00000
00000
00000
00000
,
01000
00000
00000
00000
00000
00000
00000
00000
00000
00000
00100
00000
00000
00000
00000
00000
00000
00000
00000
10000
00000
00000
01000
00000
00000
00000
00000
00000
00000
00000
00000
00000
00100
00000
00000
00000
00000
00000
00000
00010
00000
00000
00000
00000
00000
00000
00001
00000
00000
00000
00000
00000
00000
00010
00000
00000
00000
00000
00000
00000
00100
00000
00000
00000
,
00000
00000
00010
00000
00000
00000
00000
00001
00000
00000
00000
00000
00000
00000
00000
00000
00000
00100
00000
00000
00000
00000
00010
00000
00000
00000
00000
00001
00000
00000
00000
00000
00000
00000
10000
00000
00000
00000
00000
00000
00000
00000
10000
00000
00000
00000
00000
00000
00000
01000
00000
00000
00000
00000
00000
00000
00000
00000
00100
00000
00000
00000
00000
00000
,
00000
00000
01000
00000
00000
00000
00000
00000
00000
00000
00100
00000
00000
00000
00000
00000
01000
00000
00000
00000
00000
00000
00000
00000
00010
00000
00000
00000
00000
00000
00000
00000
00000
00100
00000
00000
00010
00000
00000
00000
00001
00000
00000
00000
00010
00000
00000
00000
00100
00000
00000
00000
00000
00000
00000
00000
00000
00100
00000
00000
00000
00000
00000
00000
,
00000
00100
00000
00000
00000
00000
00000
01000
00000
00000
00000
00000
00000
00000
00000
00000
00100
00000
00000
00000
00000
10000
00000
00000
00000
00000
00000
00000
00000
00000
00000
00000
10000
00000
01000
00000
00000
00000
00100
00000
00000
00000
00000
10000
00000
00000
00000
00000
00000
00100
00000
00000
00000
00000
00000
01000
00000
00000
00000
00000
00000
00000
00000
00000
,
00100
00000
00000
00000
00000
00000
01000
00000
00000
00000
00000
00000
00000
00000
00100
00000
00000
00000
00000
00000
00000
01000
00000
00000
00000
00000
00000
00000
00000
00000
00000
00000
00010
00000
00000
00000
00000
00100
00000
01000
00000
00000
00000
00000
00000
10000
00000
00100
00000
00000
00000
00000
00000
00000
00000
10000
00000
00000
00000
00000
00000
00000
00100
00000
,
00000
00000
00000
00000
10000
00000
00000
00000
00000
00000
00000
00100
00000
00000
00000
00000
00000
00000
00000
10000
00001
00000
00000
00000
00000
00000
00100
00001
00000
00000
00000
00000
00000
00000
00000
00000
01010
00000
00000
00100
00000
00000
00000
10000
00000
00000
00000
01000
00000
00000
00000
00001
00000
00000
00000
00000
00000
01000
00000
00000
00000
00000
00000
00000
,
00000
00001
00000
00000
00000
00000
00000
00000
01000
00000
00000
00000
00000
00000
00000
00000
00000
00000
00001
00000
00000
00000
00000
00000
01000
00000
00000
00000
00000
00000
00000
00000
00100
00000
00000
00010
00000
00000
00000
00001
00000
00000
00000
00010
00000
00000
00100
00000
00000
00000
00000
01000
00000
00000
00000
00000
00000
00000
00000
00000
00100
00000
00000
00000
,
00000
00000
00000
01000
00000
00000
00000
00000
00000
00000
00000
00100
00000
00000
00000
00000
00000
00000
01000
00000
00000
00000
00000
00000
00000
00100
00000
00000
00000
00000
00000
00000
10000
00000
00000
00000
01000
00000
00000
00000
00000
00000
00100
00000
00000
00000
00010
00000
00000
00000
00000
00000
00000
00000
00000
00000
00100
00000
00000
00000
00000
00000
00010
00000
,
00000
00000
00000
00000
00000
00000
00100
00000
00000
00000
00000
00000
00000
00010
00000
00000
00000
00000
00000
00000
00000
00100
00000
00000
00000
00000
00000
00000
01000
00000
00000
00000
00000
00000
00000
01000
00000
00000
00000
00000
00000
00000
10000
00000
00000
00000
00100
00000
00000
01000
00000
00000
00000
00000
00000
00000
00000
00000
00100
00000
00000
00000
00000
00000
,
00000
00000
00000
00000
00100
00000
00000
00000
00000
00000
00000
00001
00000
00000
00000
00000
00000
00000
00000
00000
00001
00000
00000
00000
00000
00000
00000
00001
00000
00000
00000
00000
00000
00010
00000
00000
00000
00100
00000
00000
00000
00000
00000
00000
00000
00000
00001
00000
00000
00000
00000
00000
00000
00000
00001
00000
00000
00000
00000
00000
00100
00000
00000
00000
,
00000
00000
00000
00001
00000
00000
00000
00000
00000
00000
10000
00000
00000
00000
00000
00000
00000
00001
00000
00000
00000
00000
00000
00000
00000
10000
00000
00000
00000
00000
00000
00000
00000
00000
01000
00000
00000
00000
00000
00000
00100
00000
00000
00000
00010
00000
00000
00000
00000
00000
00000
00100
00000
00000
00000
00000
00000
00000
00000
00000
00000
00100
00000
00000
,
00000
00000
00000
01000
00000
00000
00000
00000
00000
00000
00000
00100
00000
00000
00000
00000
00000
00000
00000
01000
00000
00000
00000
00000
00000
00100
00000
00000
00000
00000
00000
00000
00000
10000
00000
00000
00000
01000
00000
00000
00000
00100
00000
00000
00000
00000
00000
00000
00100
00000
00000
00000
00000
00000
00000
01000
00000
00000
00000
00000
00000
00000
00100
00000
,
00000
00000
00000
00000
01000
00000
00000
00000
00000
00000
00100
00000
00000
00000
00000
00000
00000
01000
00000
00000
00000
00000
00000
00000
00100
00000
00000
00000
00000
00000
00000
00000
10000
00000
00000
00000
00000
00000
00000
10000
00000
00000
00000
00000
00000
00100
00000
00000
00000
00010
00000
00000
00000
00000
00000
00000
00000
00100
00000
00000
00000
00000
00000
00000
,
00010
00000
00000
00000
00000
00000
00001
00000
00000
00000
00000
00000
00000
00000
00000
00000
00010
00000
00000
00100
00000
00000
00000
00000
00000
00000
00000
00001
00000
00000
00000
00000
00000
01000
00000
00000
00000
00000
00000
00000
00000
00100
00000
00000
00000
00000
00000
00000
00000
01000
00000
00000
00000
00000
00000
00000
00000
00000
00100
00000
00000
00000
00000
00000
,
01000
00000
00000
00000
00000
00000
00000
00000
00000
00100
00000
00000
00000
00000
00000
00000
01000
00000
00000
00000
00000
00000
00000
00100
00000
00000
00000
00000
00000
00000
00000
00000
00000
00010
00000
00000
00000
00001
00000
00000
00000
00000
00010
00000
00000
00000
00100
00000
00000
00000
00000
00000
00000
00001
00000
00000
00000
00000
00000
00000
00100
00000
00000
00000
,
00000
00000
00001
00000
00000
00000
00000
00000
00000
00100
00000
00000
00000
00000
00000
00000
00000
00000
00001
00000
00000
00000
00000
00000
00000
00100
00000
00000
00000
00000
00000
00000
00000
00000
10000
00000
00000
00000
00000
01000
00000
00000
00000
00000
00010
00000
00000
00000
00000
00000
00000
00100
00000
00000
00000
00000
00000
00000
00000
00010
00000
00000
00000
00000
,
00000
00000
00000
00100
00000
00000
00000
00000
00000
00000
00010
00000
00000
00000
00000
00000
00000
00000
00100
00000
00000
00000
00000
00000
00000
00000
01000
00000
00000
00000
00000
00000
00000
00000
00000
10000
01000
00000
00000
00000
00000
00000
00000
00100
00000
00000
00000
00000
00010
00000
00000
00000
00000
00000
00000
00000
00000
00000
00100
00000
00000
00000
00000
00000
,
00000
00000
00010
00000
00000
00000
00000
00000
00000
00000
00001
00000
00000
00000
00000
00000
00000
00010
00000
00000
00000
00000
00000
00000
00100
00000
00000
00000
00000
00000
00000
00000
00010
00000
00001
00000
00000
00000
00000
00010
00000
00000
00000
00100
00000
00000
00000
00000
00000
00000
00000
00100
00000
00000
00000
01000
00000
00000
00000
00000
00000
00000
00100
00000
,
00000
00000
00000
00000
00000
00000
01000
00000
00000
00000
00000
00000
00100
00000
00000
00000
00000
00000
00000
00000
00100
00000
00000
00000
00000
00000
00000
00010
00000
00000
00001
00000
00000
00000
00000
00000
00010
00000
00000
00100
00000
00000
00000
00000
01000
00000
00000
00000
00000
00000
00100
00000
00000
00000
00000
00000
00000
00000
00000
01000
00000
00000
00000
00000
,
00000
00000
00000
00000
00100
00000
00000
00000
00000
00000
01000
00000
00000
00000
00000
00000
00000
00100
00000
00000
00000
00000
00000
00000
01000
00000
00000
00000
00000
00000
00000
00000
00000
00010
00000
00000
00100
00000
00000
00000
00000
01000
00000
00000
00000
00000
10000
00000
00100
00000
00000
00000
00000
00000
00000
00000
00000
10000
00000
00000
00000
00000
00001
00000
,
00000
00000
00000
10000
00000
00000
00001
00000
00000
00000
00000
00000
00000
10000
00000
00000
00000
00000
00000
00000
00000
00100
00000
00000
00000
00000
01000
00000
00000
00000
00000
00000
00000
00000
00100
00000
00000
00000
01000
00000
00000
00000
00100
00000
00000
00000
01000
00000
00000
00000
00000
00010
00000
00000
00000
00000
00000
00100
00000
00000
00000
00000
00000
00000
,
00001
00000
00000
00000
00000
00000
00000
00000
00000
10000
00001
00000
00000
00000
00000
00000
00000
00000
10001
00000
00000
00000
00000
00000
00000
10001
00000
00000
00000
00000
00000
00000
00000
00000
00100
00000
00000
00000
00000
00000
01000
00000
00000
00000
00000
00000
00000
00000
00000
00000
00100
00000
00000
00000
00000
00000
00000
00000
01000
00000
00000
00000
00000
00000
,
00000
00000
00100
00000
00000
00000
00000
00000
00000
01000
00000
00000
00000
00000
00000
00000
00000
00000
00000
00010
00000
00000
00000
00000
00000
00100
00000
00000
00000
00000
00000
00000
00000
00010
00000
00000
00001
00000
00000
00000
00000
00000
00010
00000
00000
00100
00000
00000
00000
00000
00000
00000
00000
00000
00001
00000
00000
00000
00000
00000
00100
00000
00000
00000
,
00000
00000
00000
00100
00000
00000
00000
00000
00000
00000
00000
00000
00001
00000
00000
00000
00000
00000
00000
00000
00000
00100
00000
00000
00000
00000
10000
00000
00000
00000
00000
00000
00000
00000
00000
10000
00000
00000
00000
00000
01000
00000
00000
00000
00000
00000
00000
00100
00000
00000
00000
00000
00000
00000
01000
00000
00000
00000
00000
00000
00000
00100
00000
00000
,
00000
00000
00000
00000
01000
00000
00000
00000
00000
00000
00000
00100
00000
00000
00000
00000
00000
00000
00000
10000
00000
00000
00000
00000
00000
00000
00000
10000
00000
00000
00000
00000
00000
00000
00100
00000
00000
00000
00000
00000
00000
00000
00001
00000
00000
00000
00000
00000
00000
00000
00100
00000
00000
00000
00000
00000
00000
00000
00001
00000
00000
00000
00000
00000
,
00000
00000
00100
00000
00000
00000
00000
00000
00000
00000
00001
00000
00000
00000
00000
00000
00000
00000
00000
00000
00000
00100
00000
00000
00000
00000
00000
00000
10000
00000
00000
00000
00000
00000
00000
00000
00100
00000
10000
00000
00000
01000
00000
00000
00000
00000
00100
00000
00000
00000
00000
00000
00010
00000
00000
00000
00000
00000
00000
00000
00100
00000
00000
00000
,
00000
00000
00000
00010
00000
00000
00000
00000
00000
00000
00100
00000
00000
00000
00000
00000
00000
00000
00000
00010
00000
00000
00000
00000
00000
00000
01000
00000
00000
00000
00000
00000
00000
00000
00100
00000
00000
10000
00000
01000
00000
00000
00000
00000
00100
00000
00000
00000
00000
00000
00000
00000
00100
00000
00000
00000
00000
00000
10000
00000
00000
00000
00000
00000
,
00000
00000
00000
00100
00000
00000
00000
00000
00000
00000
10000
00000
00000
00000
00000
00000
00000
00000
00000
00100
00000
00000
00000
00000
00000
00000
01000
00000
00000
00000
00000
00000
00000
00000
00000
00100
00000
00000
00000
00010
00000
00000
00000
00000
00000
00001
00000
00000
00000
00000
00000
00000
00000
00000
00000
00000
00100
00000
00000
00000
00010
00000
00000
00000
,
00000
00001
00000
00000
00000
00000
00000
00000
00000
00000
00000
00000
00100
00000
00000
00010
00000
00000
00000
00001
00000
00000
00000
00000
00000
00000
00000
00000
00000
00000
00000
00000
00000
00100
00000
00000
00000
00000
10000
00000
00000
00100
00000
00000
10000
00000
00000
00000
00000
00001
00000
00000
00000
00100
00000
00000
00000
00001
00100
00000
00000
00000
00000
00000
,
00000
00000
01010
00000
00000
00000
00000
00000
00000
00000
10100
00000
00000
00000
00000
00000
00000
01010
00000
00000
00000
00000
00000
00000
10000
00000
00001
00000
00000
00000
00000
00000
00000
00000
01010
00000
00000
00000
00000
00000
00100
00000
00000
00000
00000
00000
00000
00000
00000
00000
00000
10000
00000
00000
00000
00000
00100
00000
00000
00000
00000
00000
00000
10000
,
00000
00000
00000
00001
00000
00000
00000
00000
00000
00100
00000
00000
00000
00000
00000
00000
00000
00001
00000
00000
00000
00000
00000
00000
00000
00000
00000
00000
00000
00000
00000
00000
00000
00010
00000
00000
01100
00000
00000
00000
00000
00000
00000
00000
00100
00000
00000
00000
00000
00000
00000
10000
00000
00000
00000
00000
00000
00000
00000
00100
00000
00000
00000
00000
,
00000
00000
00000
10000
00000
00000
00000
00000
00000
00001
00000
00000
00000
00000
00000
00000
00000
00000
00001
00000
00000
00000
00000
00000
00000
00000
00000
00000
00000
00000
00010
00000
00100
00000
00000
00000
01000
00000
00000
00000
00000
00000
00000
00000
00000
00000
00100
00000
00000
00000
00000
00000
01000
00000
00000
00000
00000
00000
00000
00000
00000
00000
00000
00000
,
00000
00000
00000
00000
00000
01010
00000
00000
00000
00000
00000
00000
01010
00000
00000
00000
00000
00000
00001
10000
00000
00000
00000
00000
00000
00000
00000
00000
00000
00000
00000
00000
00000
00000
00000
00000
10100
00000
00000
00000
00000
00000
00000
00001
00000
00000
00000
00000
10000
00000
00100
00000
00000
00000
00000
00001
00000
00000
00000
00000
00000
00000
00000
00000
,
00000
00000
00000
10001
00000
00000
00000
00000
00000
00000
00001
10000
00000
00000
00000
00000
00000
01000
00000
00100
00000
00000
00000
00000
00000
00000
00000
00000
00000
00000
00000
00000
00000
00000
00010
00000
00000
00000
00000
00001
00000
00000
00000
00000
00010
00000
00000
00100
00000
00000
00000
00000
01000
00000
00000
00000
00000
00000
00000
00000
00000
00000
00000
00000
,
00000
01000
00000
00000
00000
00000
00000
00100
00000
00000
00000
00000
00010
00000
00000
00000
00000
00001
00000
00000
00000
00000
00000
00000
00000
00000
00000
00000
00000
00000
00000
00000
00000
00000
00000
00100
00000
00000
00000
00000
10000
00000
00000
00100
00000
00000
00000
00000
10000
00000
00000
00001
00000
00000
00000
00000
00000
00100
00000
00000
00001
00000
00000
00000
,
00000
00000
00000
00010
01000
00000
00000
00000
00000
00000
00100
00000
00000
00000
00000
00000
00000
00001
00000
10000
00000
00000
00000
00000
00000
00000
00000
00000
00000
00000
00000
00000
00000
00000
00100
00000
00000
00000
00000
00000
00100
00000
00000
00000
00000
01000
00000
00000
00000
00100
00000
00000
00000
00000
00000
00000
00000
00000
00000
00000
00000
00000
00000
00000
,
00000
00000
00010
00000
01000
00000
00000
00000
00000
00000
00010
01000
00000
00000
00000
00000
00001
00000
00000
00000
00000
00000
00000
00000
00000
00000
00000
00000
00000
00000
00000
00000
00000
00000
00000
00000
10100
00000
00000
00000
00000
00000
00000
00001
00000
00000
00000
00000
00000
00000
00100
00000
00000
00000
00000
00000
00000
00000
00001
00000
00000
00000
00000
00000
,
00000
00000
00100
00000
10000
00000
00000
00000
00000
00001
00000
00000
00000
10000
00000
00000
00000
00100
00000
00000
00000
00000
10001
00000
00000
00000
00000
00000
00000
00000
00000
00000
00000
00000
00000
00001
00000
01000
00000
00000
00000
00000
00000
00001
00000
01000
00000
00000
00000
00000
00000
00000
00000
00000
00000
00000
00000
00000
00000
00000
00001
00000
01000
00000
,
00000
00000
00000
00001
00000
00000
01000
00000
00000
00000
00001
00000
00000
00000
00000
01000
00000
00000
00001
00000
00000
00000
00000
00000
00000
01000
00001
00000
00000
00000
00000
00000
00000
00000
01001
00000
00000
00000
00000
00000
00000
00000
01001
00000
00000
00000
00000
00000
00000
00000
00001
00000
01000
00000
00000
00000
00000
00000
00001
00000
00000
01000
00000
00000
,
00000
00000
00001
00000
00000
01000
00000
00000
00000
00000
00001
00000
00000
01000
00000
00000
00000
00000
00001
00000
01000
00000
00000
00000
00000
00001
00000
00000
01000
00000
00000
00000
00000
00000
00000
00010
00000
10000
00000
00000
00000
00000
00000
00010
00000
00000
00000
10000
00000
00000
00000
00000
00010
00000
00000
10000
00000
00000
00000
00000
00010
00000
00000
00000
,
10000
00000
00000
00000
00010
00000
00000
00000
10000
00000
00000
00000
00010
00000
00000
00000
00000
10000
00000
00000
00010
00000
00000
00000
00000
00000
10000
00000
00000
00010
00000
00000
00000
00000
00000
10000
00000
00000
00010
00000
00000
00000
00000
10000
00000
00000
00000
00000
00010
00000
00000
10000
00000
00000
00000
00000
00010
00000
00000
00000
00000
10000
00000
00000
,
00000
00010
00000
00000
00000
00000
10000
00000
00000
00000
00000
00010
00000
00000
00000
10000
00000
00000
00000
00010
00000
00000
00000
00000
10000
00000
00000
00000
00010
00000
00000
00000
00000
00000
01000
00000
00001
00000
00000
00000
00000
00000
00000
00000
00000
01001
00000
00000
00000
00000
00000
00000
00001
01000
00000
00000
00000
00000
00001
00000
00000
01000
00000
00000
,
00001
00000
00000
00000
01000
00000
00000
00001
00000
00000
00000
00000
01001
00000
00000
00000
00000
00000
00000
01001
00000
00000
00000
00000
00001
01000
00000
00000
00000
00000
00001
00000
01000
00000
00000
00000
00010
00000
00000
10000
00000
00000
00000
00010
00000
00000
10000
00000
00000
00010
00000
00000
00000
00000
00000
01100
00000
00000
00000
00000
00000
00100
00000
01000
,
00000
00000
00000
00100
00000
00000
00000
00100
00000
00000
00001
00000
00000
00000
00100
00000
00001
00000
00000
00000
00000
00000
00000
10010
00000
00000
00000
00000
00100
00000
00000
00000
01010
00000
00000
00000
00001
00000
00000
00000
00010
00000
00000
01100
00000
00000
00000
00000
10000
00000
00001
00000
00000
00000
00010
00000
00000
00100
00000
00000
01000
00000
00000
00000
,
00000
00000
00000
00000
00000
00000
00010
00000
00000
01100
00000
00000
00000
10000
00001
00000
00000
00000
00000
00000
00010
00000
01100
00000
00000
00000
10000
00000
00001
00000
00000
00000
00000
00000
00000
00000
10001
00000
00000
00000
00000
00000
00001
10000
00000
00000
00000
00000
00000
00001
10000
00000
00000
00000
00000
00000
00001
00000
10000
00000
00000
00000
00000
00000
,
00000
00000
00000
00002
00000
20000
00000
00000
00000
00000
00000
00000
00000
00000
00000
00000
00000
00000
00000
00000
00000
00000
00000
00000
00000
00000
00000
00000
00000
00000
00000
00000
00003
00000
00000
30000
00000
00100
00000
00000
00000
00000
00000
00100
00000
00000
00000
00000
00000
00000
01000
00000
00000
00010
00000
00000
00000
00000
00000
01000
00000
00000
00010
00000
,
00000
00000
00000
01000
00000
00000
00000
00000
00000
00000
00000
00000
00000
00000
00000
00000
00000
00000
00100
00000
00000
00000
00000
00000
00000
00000
00100
00000
00000
00000
00000
00000
00000
00000
00100
00000
00000
00000
00000
00000
00000
00000
00000
00000
00000
00000
00000
00000
00000
00000
00000
01000
00000
00000
00000
00000
00000
00000
01100
00000
00000
00010
00000
00000
,
00000
10001
00000
00000
00000
00000
00000
00000
00000
00000
00000
00000
00000
00000
00000
00000
00000
00000
10000
00000
00000
00000
00000
00000
00000
10000
00000
00000
00000
00000
00000
00100
00000
00000
10000
00000
00000
00000
00000
00000
00000
00000
00000
00000
00000
00000
00000
00000
00000
00000
00100
00000
00000
00000
00000
00000
00000
00000
00100
00000
00000
00000
00000
10000
,
00000
00000
00010
00000
00000
00001
00000
00000
00000
00000
00000
00000
00000
00000
00000
00000
00000
00000
00000
00000
00000
00000
00000
00000
00000
00000
00000
00100
00000
00000
00000
00000
00000
00000
00100
00000
00000
00000
00000
00000
00000
00000
00000
00000
00000
00000
00000
00000
00000
10000
00000
00000
00000
01000
00000
00000
00000
00000
00100
00000
00000
00000
00010
00000
,
00000
00001
00000
00000
00000
00000
00010
00000
00000
00100
00000
00000
00000
00000
00000
00000
00000
00001
00000
00000
00100
00000
00000
00000
00001
00000
00000
00000
00100
00000
00000
00000
00001
00000
00000
00000
00100
00000
00000
00000
00000
00000
00000
00000
00000
00000
00000
00000
00000
00000
00010
00000
00000
00000
00000
00000
00100
00010
00000
00000
00000
00000
00000
00100
,
00000
00000
00010
00000
00002
00000
00000
00000
00000
00000
00000
00000
00000
00000
00000
00000
00000
00000
00003
00000
00000
00000
00000
00000
00000
00000
00000
00100
00000
00000
00000
00000
00000
10000
00000
00000
00000
00000
00000
00000
00000
00000
00000
00000
00000
00000
00000
00000
00000
00000
01000
00000
00000
00000
00000
00000
00000
00100
00000
00000
00000
01000
00000
00000
,
00100
00000
00000
00000
00000
00000
00000
10000
00000
00000
00000
00000
00000
00100
00000
00000
00000
00000
00000
01000
00000
00000
00100
00000
00000
00000
00000
01000
00000
00000
00000
00100
00000
00000
00000
01000
00000
00000
00000
00000
00000
00000
00000
00000
00000
00000
00000
00000
00000
00000
00100
00000
00010
00000
00000
00000
00000
00001
00000
00000
00000
00000
00010
00200
,
00000
00000
00000
20000
00000
00000
00000
00000
00000
00000
00000
00000
00000
00000
00000
00000
00000
00000
00000
00000
00000
00000
00000
00000
00000
00000
00300
00000
30000
00000
00000
00000
00000
00000
01100
00000
00000
00000
00000
00000
00000
00000
00001
00000
00000
00000
00000
00000
00000
00000
00100
00000
00000
00000
00000
00000
00001
00000
00000
00000
00010
00000
00000
00100
,
00000
00000
00000
01000
00000
00000
00000
00000
00001
00000
00000
00000
00000
00000
00000
00100
00000
10000
00000
00000
00000
00000
00000
00100
00000
00000
10000
00000
00000
00100
00000
00000
00000
10000
00000
00000
00001
00000
00000
00000
00000
00000
00000
00000
00000
00000
00000
00000
00000
00000
00101
00000
00000
00000
00000
00000
00000
00001
00000
00000
00000
00000
00010
00000
,
00000
01200
00000
00000
00000
00000
00000
00000
00000
00000
00000
00000
00000
00000
00000
00000
00000
00000
00000
00000
00000
00000
00000
00000
00000
00300
00000
00000
00000
00010
00000
00000
00000
00001
00000
01000
00000
00000
00000
00000
00000
00000
00000
00100
00000
00000
00000
00000
01010
00000
00000
00000
00001
00000
00000
00000
00000
00000
10010
00000
00000
00100
01000
00000
,
00000
00000
00000
00100
00000
00000
00000
00000
00000
00000
00000
00000
00000
00000
00000
00000
00000
00000
00000
01000
00000
00000
00001
00000
00000
00000
00000
00000
00010
10000
00000
00100
00000
00000
00000
00000
10000
00000
00000
00000
00000
00000
00000
00000
00000
00000
00000
00000
00000
00000
00100
00000
00000
00000
00000
10000
00000
00100
00000
00000
00000
10000
00000
00000
,
00000
00001
00000
00000
00100
00000
00000
00000
00000
00000
00000
00000
00000
00000
00000
00000
00000
00000
00001
00000
00000
00000
00000
00000
00000
00000
01000
00000
00000
00000
00000
00000
00000
00010
00000
00000
00000
00000
00000
00000
00000
00000
00000
00000
00000
00000
00000
00000
00000
00000
00000
00010
00000
00000
00000
00000
00000
00100
00000
00000
01000
00000
00010
00000
,
00000
00000
00100
00000
00000
00000
00000
01000
00000
00000
00000
00000
00100
00000
00000
00000
00000
10000
00000
00000
00001
00000
00000
00010
00000
00000
00000
00100
01000
00000
00000
10000
00000
00001
00000
00000
00000
00000
00000
00000
00000
00000
00000
00000
00000
00000
00000
00000
00000
00000
00001
10000
00000
00000
00000
00000
00000
00000
11100
00000
00000
00000
00010
00000
,
00001
10000
00000
00000
00000
00000
00000
00000
00000
00000
00000
00000
00000
00000
00000
00000
00000
00001
10000
00000
00000
00000
00000
00000
00000
00001
00000
00000
00000
10000
00000
00000
00000
00000
00001
00000
00000
00000
00000
00000
00000
00000
00000
00000
00000
00000
00000
00000
00000
00000
00000
00010
00000
00000
00000
00100
00000
00000
00010
00000
00000
00000
00100
00000
,
00000
00000
00000
00001
00000
00000
00000
00000
00000
00100
00000
00000
00000
00000
00000
00000
00000
00000
00010
00000
00000
00100
00000
00000
00000
00000
00010
00000
00000
01100
00000
00000
00000
00000
00000
00100
10000
00000
00000
00000
00000
00000
00000
00000
00000
00000
00000
00000
00000
00000
00000
00000
01100
00000
00000
00000
00000
00100
00000
00000
00000
10000
00000
00000
,
00000
00000
00001
00000
10000
00000
00000
00000
00000
00000
00001
00000
10000
00000
00000
00000
00000
00000
00001
00000
10000
00000
00000
00000
00000
00001
00000
10000
00000
00000
00000
00000
00000
00000
00100
00000
00000
00000
00000
00000
00000
00000
00100
00000
00000
00000
00000
00000
00000
00100
00000
00000
00000
00000
00000
00000
01000
00000
00000
00000
00000
00000
00000
00000
,
00000
00000
00000
00010
00000
00000
00000
00000
00000
01000
00000
00000
00000
00000
00000
00000
00000
00000
00000
00000
00001
00000
00000
00000
00000
00000
00000
10000
00000
00000
00000
00000
00000
00000
00000
00000
00100
00000
00000
00000
00000
00000
00000
00000
00000
00000
00000
00000
00000
00000
00000
00000
00000
00000
00000
00000
00000
00000
00000
00000
00010
00000
00000
00000
,
00000
00000
01000
00000
00000
00000
00000
00000
00000
00000
00000
00000
00000
00000
00000
00000
00000
00000
01000
00000
00000
00000
00000
00000
00000
00100
00000
00000
00000
00000
00000
00000
00000
00000
10000
00000
00000
00000
00000
00000
00000
00000
00000
00000
00000
00000
00000
00000
00000
00000
00000
00000
00000
00000
00000
00000
00000
10000
00000
00000
00000
00000
00000
00000
,
00000
10000
00000
00000
00000
00000
00000
00000
00000
00000
00000
00000
00000
00000
00000
00000
00000
00001
00000
00000
00000
00000
00000
00000
00000
00100
00000
00000
00000
00000
00000
00000
00000
00010
00000
00000
00000
00000
00000
00000
00000
00000
00000
00000
00000
00000
00000
00000
00000
00000
00010
00000
00000
00000
00000
00000
00000
00100
00000
00000
00000
00000
00000
00000
,
00000
01000
00000
00000
00000
00000
00000
00000
00000
00000
00000
00000
00000
00000
00000
00000
00000
00000
10000
00000
00000
00000
00000
00000
00100
00000
00000
00000
00000
00000
00000
00000
00000
10000
00000
00000
00000
00000
00000
00000
00001
00000
00000
00000
10000
00000
00000
00000
00000
00001
00000
00000
00000
00000
10000
00000
00000
00000
00000
00000
00000
00000
00000
00000
,
00000
00000
00010
00000
00000
00000
00100
00000
00000
00000
00010
00000
00000
00000
00000
00000
00000
00000
00100
00000
00000
00000
00000
00000
00000
00000
01000
00000
00000
00000
00000
00000
00000
00000
10000
00000
00000
00000
00000
00000
00000
00000
00000
00000
00000
00000
00000
00000
10000
00000
00000
00000
00000
00000
00000
00000
00000
00100
00000
00000
00000
00000
00000
00000
,
00000
00000
10000
00000
00000
00000
00000
00000
00000
00000
00000
00000
00000
00000
00000
00100
00000
00000
00000
00000
10000
00000
00000
00000
00100
00000
00000
10000
00000
00000
00000
00001
00000
00000
00000
00000
00000
00000
00000
00000
00000
00000
00000
00000
00000
00000
00000
00000
00000
00000
00000
00010
00000
00000
00000
00000
00000
00000
00100
00000
00000
00000
00000
00000
,
00000
00010
00000
00000
00000
00000
00000
00000
00000
00000
00000
00000
00000
00000
00000
00000
00100
00000
00000
00000
00000
01000
00000
00000
00100
00000
00000
00000
01000
00000
00000
00000
00010
00000
00000
00000
00000
00000
00000
00000
00000
00000
00000
00000
00000
00000
00000
00000
00000
00000
00100
00000
00000
00000
00000
00010
00000
00000
00000
00001
00000
00000
00000
00000
,
00000
00000
00001
00000
00000
00000
00000
00000
00000
00000
00000
00000
00000
00000
00000
00000
00000
00000
00001
00000
00000
00000
00000
00000
10000
00000
00000
00000
00000
00000
00000
00000
00000
00000
00100
00000
00000
00000
10000
00000
00000
00000
00100
00000
00000
10000
00000
00000
00000
00000
00001
00000
00000
00000
00100
00000
00000
00000
00001
00000
00000
00000
00000
00000
,
00000
00010
00000
00000
00000
00000
00000
01000
00000
00010
00000
00000
00000
00000
00000
00000
00000
00100
00000
00000
00000
00000
00000
00000
00000
01000
00000
00000
00000
00000
00000
00000
00000
00000
01000
00000
00000
00000
00000
00000
00000
00000
00000
00000
00000
00000
00000
00000
00000
00000
10000
00000
00000
00000
00000
00100
00000
00000
00000
00000
00010
00000
00000
00002
,
00000
00000
00000
00000
00000
00000
00000
00000
00000
00000
00000
00000
00000
00000
00000
00000
00000
00000
00000
00000
00000
00000
00000
00000
00000
00000
00000
00000
00000
00000
00000
00000
00000
00000
00000
00000
00000
00000
00000
00003
00000
00000
00000
00000
00000
00000
00000
00000
00000
00100
00000
00000
00000
00000
00000
00000
00000
00010
00000
00000
00000
00000
00000
00000
,
00000
00100
00000
00000
00000
00000
00000
00000
00000
01000
00000
00000
00000
00000
00000
00000
00000
10000
00000
00000
00000
00000
00000
00000
00000
00100
00000
00000
00000
00000
00000
00000
01000
00000
00000
00000
00000
00000
00000
00000
00000
00000
00000
00000
00000
00000
00000
00000
00100
00000
00000
00000
00010
00000
00000
00000
00000
00100
00000
00000
00000
00000
02000
00000
,
00000
00000
00000
00000
00000
00000
00000
00000
00000
00000
00000
00000
00000
00000
00000
00000
00000
00000
00000
00000
00000
00000
00000
00000
00000
00000
00000
00000
00000
00000
00000
00000
00000
00000
00000
00000
00000
00000
00000
00000
00000
00000
03000
00000
00000
00000
00000
00000
00000
00000
00100
00000
00000
00000
00000
00000
00000
00000
00000
10000
00000
00000
00000
00000
,
00000
00000
00001
00000
00000
00000
00000
00000
00100
00000
00000
00000
00000
00000
00000
00000
00000
00000
00010
00000
00000
00000
00000
00000
01000
00000
00000
00000
00000
00000
00000
00000
00000
00100
00000
00000
00000
00000
00000
00000
00000
00000
00000
00000
00000
00000
00000
00000
00000
00000
00000
00100
00000
00000
01000
00000
00000
00000
00000
00100
00000
00000
02000
00000
,
00000
00000
00000
00000
00000
00000
00000
00000
00000
00000
00000
00000
00000
00000
00000
00000
00000
03000
00000
00000
00000
00000
00000
00000
10000
00000
00000
00000
01000
00000
00000
00000
,
00000
00000
00100
00000
00000
00000
00000
00000
00000
00010
00000
00000
00000
00000
00000
00000
00000
00000
00001
00000
00000
00000
00000
00000
00000
00010
00000
00000
00000
00000
00000
00000
00000
00000
00000
00000
00000
00000
20000
00000
00002
00000
00000
00000
00000
00000
00000
00000
00000
00000
00000
00000
00000
00000
00000
00000
00000
00000
00000
00000
00000
30003
00000
00000
,
00000
00100
00000
00000
00000
00000
00000
01000
00000
00000
00000
00000
00000
00000
00000
00000
00000
00000
00000
00000
00000
00000
00000
00000
00000
00000
00000
00000
00000
00000
00000
00000
00000
00000
00000
00000
00000
00000
00000
01000
00000
00000
00000
00000
00000
00000
00100
00000
00000
00000
00010
00000
00000
00000
00000
00000
00001
00000
00000
00000
00000
00000
00100
00000
,
00000
00000
00000
00000
00010
00000
00000
00000
00000
00100
00000
00000
00000
00000
00000
01000
00000
00000
00000
00000
00000
00100
00000
00000
00000
00000
00000
00000
10000
00000
00000
00000
00000
00000
00000
00100
00000
00000
00000
10000
00000
00000
00000
00000
00000
00000
00001
00000
00000
00000
00000
00100
00000
00000
00000
00000
00000
00000
00000
00010
00000
00000
00200
00000
,
00000
00000
00000
00000
00000
00000
00000
00000
00000
00000
00000
00000
00000
00000
00000
00000
00000
00000
00000
00000
00000
00000
00000
00000
00000
00000
00000
00000
00000
00000
00000
00000
00000
00000
00000
00000
00000
00000
00000
00000
00000
00000
00000
00300
00000
00000
00000
00000
00000
00000
01000
00000
00000
00000
00000
00000
00000
00000
00010
00000
00000
00000
00000
00000
,
00000
00000
00001
00000
00000
00000
00000
00000
00000
00010
00000
00000
00000
00000
00000
00000
00000
00100
00000
00000
00000
00000
00000
00000
00001
00000
00000
00000
00000
00000
00000
00000
00000
00100
00000
00000
00000
00000
00000
00000
00000
00000
00000
00000
00000
00000
00000
00000
00000
00000
00000
00100
00000
00000
00000
00000
00000
10000
00000
00100
00000
00000
00000
10000
,
00000
00000
00002
00000
00000
00000
00000
00000
00000
00000
00000
00000
00000
00000
00000
00000
00000
00000
00000
00000
00000
00000
00000
00000
00000
00000
00000
00000
00000
00000
00000
00000
00000
00000
00000
00000
00000
00000
00000
00000
00000
00000
00000
00003
00000
00000
00000
00000
00100
00000
00000
00000
00000
00000
00000
00000
00010
00000
00000
00000
00000
00000
00000
00000
,
00100
00000
00000
00000
00000
00000
00000
00000
00000
00000
01000
00000
00000
00000
00000
00000
00000
00000
00000
10000
00000
00000
00000
00000
00000
00000
01000
00000
00000
00000
00000
00000
00000
00000
00000
00000
00100
00000
00000
00000
00000
00000
00000
00000
00000
00000
00000
00000
00000
00100
00000
00000
00000
00000
00000
00000
00000
01000
00000
00000
00100
00000
00020
00000
,
00000
00000
00000
00000
00000
00000
00000
00000
00000
00000
00000
00000
00000
00000
00000
00000
00000
00000
00000
00000
00000
00000
00000
00000
00000
00000
00000
00000
00000
00000
00000
00000
00000
00000
00000
00000
00000
00030
00000
00000
00000
00000
00000
00000
00000
00000
00000
00000
00001
00000
00000
00000
00000
00000
00000
00000
00000
00100
00000
00000
00000
00000
00000
00000
,
00000
00010
00000
00000
00000
00000
00000
00000
00000
01000
00000
00000
00000
00000
00000
00000
00000
00100
00000
00000
00000
00000
00000
00000
00000
01000
00000
00000
00000
00000
00000
00000
00000
02000
00000
00000
00000
00000
00000
00000
00000
00000
00000
00000
00000
00000
00000
00000
00000
00000
00000
00000
00000
00000
00000
00000
00000
00000
00000
00000
00000
00000
00000
00000
,
00000
00000
00000
00000
00000
00000
00000
00000
00000
00000
00000
00000
00000
00000
00000
00000
00000
00000
00000
00000
00100
00000
00000
00000
00000
00000
00000
00000
00000
00000
00000
00020
00000
00000
00000
00000
00000
00000
00000
00000
00000
00000
00000
00000
00000
00000
00000
00000
00000
00000
00000
00000
00000
00000
00000
00000
00000
00000
00000
00000
00000
00000
00000
00000
,
00000
00000
00000
00000
00000
00000
00000
00000
00000
00000
00000
00000
00000
00030
00000
00000
00000
00000
03100
00000
00000
00000
00000
00000
00000
00000
00000
00000
00000
00000
00000
00002
00000
00000
00000
00000
00000
00000
00000
00000
00000
00000
00000
00000
00000
00000
00000
00000
00000
00000
00000
00000
00000
00000
00000
00000
00000
00000
00000
00000
00000
00000
00000
00000
,
00000
00000
00000
00000
00000
00000
00000
00000
00000
00000
00000
00000
00000
00000
00000
00000
00000
00000
00000
00000
00000
00000
00000
00000
00000
00000
00000
00000
00000
00000
00000
00000
00000
02000
00000
00000
00000
00000
00000
00000
00000
00000
00000
00000
00000
00000
00000
00000
00000
00000
00000
00000
00000
00000
00000
00000
00000
00000
00000
00000
00000
00000
00000
00000
,
00000
00000
00000
00000
00000
00000
00000
00000
00000
00000
00000
00000
00000
00000
00000
00000
00000
00000
00000
00000
00000
00000
00000
00000
03003
00000
00000
00000
00000
00000
00000
00000
00000
00000
00000
00100
00000
00000
00000
00000
00000
00010
00000
00000
00000
00000
00000
00000
00001
00000
00000
00000
00000
00000
00000
00000
00000
00010
00000
00000
00000
00000
00000
00000
,
00000
00100
00000
00000
00000
00000
00000
00000
00010
00000
00000
00000
00000
00000
00000
00000
00001
00000
00000
00000
00000
00000
00000
00010
00000
00000
00000
00000
00000
00000
00000
00100
00000
00000
00000
00000
00000
00000
00000
00000
01000
00000
00000
00000
00000
00000
00000
00000
00100
00000
00000
00000
00000
00000
00000
00000
00000
00000
00000
10000
00000
00000
00000
00000
,
00000
00000
00100
00000
00000
00000
00000
00000
00000
01000
00000
00000
00000
00000
00000
00000
00000
00100
00000
00000
00000
00000
00000
00000
00000
10000
00000
00000
00000
00000
00000
00000
00100
00000
00000
00000
00000
00000
00010
00000
00000
00000
00000
00000
00000
00001
00000
00000
00000
00000
00000
00000
00000
00100
00000
00000
00000
00000
00000
00000
00000
00001
00000
00000
,
00000
00000
00000
00000
00000
00000
00000
00100
00000
00000
00000
00000
00000
00000
00000
00000
00001
00000
00000
00000
00000
00000
00000
00100
00000
00000
00000
00000
00000
00000
00000
01000
00000
00000
00000
00000
00000
00000
00000
00100
00000
00000
00000
00000
00000
00000
00010
00000
00000
00000
00000
00000
00000
00000
00000
00100
00000
00000
00000
00000
00000
00000
01000
00000
,
00000
00000
00000
00000
00000
00000
00000
00010
00000
00000
00000
00000
00000
00000
00000
00100
00000
00000
00000
00000
00000
00000
00010
00000
00000
00000
00000
00000
00000
00001
00000
00000
00000
00000
00000
00000
00000
00000
00100
00000
00000
00000
00000
00000
00010
00000
00000
00000
00000
00001
00000
00000
00000
00000
00000
00000
00010
00000
00000
00000
00100
00000
00000
00000
,
00000
00000
00000
00000
00001
00000
00000
00000
00000
00000
00000
00100
00000
00000
00000
00000
00000
00000
00000
01000
00000
00000
00000
00001
00000
00000
00000
00000
00000
00000
00000
00000
00000
10000
00000
00000
00000
00000
00000
00000
00000
00100
00000
00000
00000
00000
00000
00000
01000
00000
00000
00000
00000
00000
00000
00000
00000
00100
00000
00000
00000
00000
00000
00000
,
01000
00000
00000
00000
00000
00000
00000
00000
00100
00000
00000
00000
00000
00000
00000
00000
00000
01000
00000
00000
00000
00000
00000
00000
00100
00000
00000
00000
00000
00000
00000
00000
00000
10000
00000
00000
00000
00000
00000
00000
00000
00100
00000
00000
00000
00000
00000
00010
00000
00000
00000
00000
00000
00000
00000
00000
00100
00000
00000
00000
00000
00010
00000
00000
,
00000
00000
00000
00000
00000
00000
00100
00000
00000
00000
00000
00000
00000
00000
00000
00010
00000
00000
00000
00000
00000
00100
00000
00000
00000
00000
00000
00000
10000
00000
00000
00000
00000
00000
00000
00100
00000
00000
00000
00000
00000
00000
01000
00000
00000
00000
00000
00000
00000
00100
00000
00000
00000
00000
00000
00000
01000
00000
00000
00000
00000
00000
00000
00000
,
00100
00000
00000
00000
00000
00000
00000
00000
10000
00000
00000
00000
00000
00000
00000
00000
00100
00000
00000
00000
01000
00000
00000
00000
00000
00000
00000
00000
00000
00000
00000
00000
00000
00000
01000
00000
00000
00000
00000
00000
00000
00100
00000
00000
00000
00000
00000
00000
00000
00000
10000
00000
00000
00000
00000
00000
00000
00100
00000
00000
00000
00000
00000
00000
,
01000
00000
00000
00000
00000
00000
00000
00000
00100
00000
00000
00000
00000
00000
00000
10000
00000
00000
00000
00000
00000
00000
00000
00000
00100
00000
00000
00000
00000
00000
00000
00000
00010
00000
00000
00000
00000
00000
00000
00000
00100
00000
00000
00000
00000
00000
00000
00000
00010
00000
00000
00000
00000
00000
00000
00001
00000
00000
00000
00000
00000
00000
00100
00000
,
00000
00000
00000
00000
00010
00000
00000
00000
00000
00001
00000
00000
00000
00000
00000
00000
00000
00100
00000
00000
00000
00000
00000
00000
00001
00000
00000
00000
00000
00000
00000
00000
01000
00000
00000
00000
00000
00000
00000
00000
00000
00000
00000
00000
00000
00100
00000
00000
00000
00000
00000
00000
00000
10000
00000
00000
00000
00000
00100
00000
00000
00000
00000
00000
,
01000
00000
00000
00000
00000
00000
00000
00000
00100
00000
00000
00000
00000
00000
00000
00000
10000
00000
00000
00000
00000
00000
00000
00100
00000
00000
00000
00000
00000
01000
00000
00000
00000
00000
00000
00000
00000
00000
01000
00000
00000
00000
00000
00000
00100
00000
00000
00000
00000
00000
00010
00000
00000
00000
00000
00001
00000
00000
00000
00000
00000
00000
00000
00010
,
00000
00000
00100
00000
00000
00000
00000
00000
01000
00000
00000
00000
00000
00000
00000
00000
00000
00100
00000
00000
00000
00000
00000
00000
00000
10000
00000
00000
00000
00000
00000
00000
00000
10000
00000
00000
00000
00000
00000
00000
10000
00000
00000
00000
00000
00000
00000
00000
00100
00000
00000
00000
00000
00000
00000
00000
00001
00000
00000
00000
00000
00000
00000
00100
,
00000
00000
00000
00000
00000
00000
00000
00001
00000
00000
00000
00000
00000
00000
00000
00000
00100
00000
00000
00000
00000
00000
00000
00001
00000
00000
00000
00000
00000
00000
00000
00000
10000
00000
00000
00000
00000
00000
01000
00000
00000
00000
00000
00100
00000
00000
00000
00010
00000
00000
00000
00001
00000
00000
00000
00000
00000
00000
00000
00100
00000
00000
00000
00000
,
00000
00000
00000
00000
00010
00000
00000
00000
00001
00000
00000
00000
00000
00010
00000
00000
00100
00000
00000
00000
00000
00000
00000
00000
00001
00000
00000
00000
00000
00000
00100
00000
00000
00000
00000
00010
00000
00000
00100
00000
00000
00000
00000
00000
01000
00000
00000
00000
00000
00100
00000
00000
01000
00000
00000
00000
00000
00000
00000
00000
10000
00000
00000
00000
,
00000
00100
00000
00000
00000
10000
00000
00000
00000
00100
00000
00000
00000
00000
00000
00000
00000
00000
00001
00000
00000
00000
00000
00000
00100
00000
00000
00000
00000
00001
00000
00000
00000
00000
00000
00010
00000
00000
00000
00000
00000
00000
01000
00000
00000
00000
00000
00000
00100
00000
00000
00000
00000
00000
00000
00000
01000
00000
00000
00000
00000
00000
00000
00000
,
00000
00000
00010
00000
00000
00000
00000
00000
00000
00100
00000
00000
00000
00000
00000
00000
00000
00100
00000
00000
00000
00010
00000
00000
00000
00001
00000
00000
00000
00000
00000
00000
00000
00000
00110
00000
00000
00000
00000
00000
00000
00001
00000
00000
00000
00000
00000
00000
00000
00100
00000
00000
00000
00000
00000
00000
00000
00000
00100
00000
00000
00000
00000
00000
,
01000
00000
00000
00100
00000
00000
00000
00000
00000
00000
01000
00000
00000
00000
00000
00000
00000
00000
00000
00001
00000
00000
00000
00000
10000
00000
00000
00000
00001
00000
00000
00000
00000
00000
10000
00000
00000
00000
00000
00000
00100
00000
00000
00000
00000
00000
00000
00010
00000
00000
00000
00000
00000
00000
00000
00100
00000
00000
00000
00000
00000
00000
00010
00000
,
00000
00000
00000
00000
00000
00000
00100
00000
00000
00000
00000
00000
00000
00000
00000
00010
00000
00000
00000
00000
00000
00000
00100
00000
00000
00000
00000
00000
00000
00000
00000
01000
00000
00000
00000
00100
00000
00000
00000
00000
10000
00000
00000
00000
00000
00100
00000
00000
00000
00000
00000
10000
00000
00000
00000
00000
00000
00000
00100
00000
00000
00000
00000
00000
,
00000
00000
10000
00000
00000
00000
00000
00000
00100
00000
00000
00000
00000
00000
00000
00000
00000
10000
00000
00000
00000
00000
00000
00000
00000
10000
00000
00000
00000
00000
00000
00100
00000
00000
00000
00000
00001
00000
00000
00000
00000
10000
00000
00000
00000
00000
00001
00000
00000
00000
00100
00000
00000
00000
00000
00000
00000
00001
00000
00000
00000
00000
00000
00000
,
00000
00100
00000
00000
00000
00000
00000
00000
00001
00000
00000
00000
00000
00000
00000
00000
00000
00000
00000
00001
00000
00000
00000
00000
00000
00100
00000
00000
00000
00000
00000
00000
00000
00100
00000
00000
00000
00010
00000
00000
00000
00000
00100
00000
00000
00000
00000
00010
00000
00000
00000
00000
00000
00000
00000
00000
00000
00100
00000
00000
00000
00000
00000
00000
,
00000
00000
00010
00000
00000
00000
00000
00000
00000
00100
00000
00000
00000
00000
00000
00000
00000
00000
00010
00000
00000
00000
00000
00000
00000
00100
00000
00000
00000
00000
00000
00010
00000
00000
00100
00000
00000
00000
00000
01000
00000
00000
00000
00000
00000
00000
01000
00000
00000
00000
00000
00100
00000
00000
00000
00000
00000
00000
01000
00000
00000
00000
00000
00000
,
00000
00000
00000
00100
00000
00000
00000
00000
00000
01000
00000
00000
00000
00000
00000
00000
00000
00100
00000
00000
00000
00000
00000
01000
00000
00000
00000
00000
00000
00000
00000
00010
00000
01000
00000
00000
00000
00000
00000
00001
00000
10000
00000
00000
00000
00000
00000
00010
01000
00000
00000
00000
00000
00000
00000
00000
10001
00000
00000
00000
00000
00000
00000
00000
,
01010
00000
00000
00000
00000
00000
00000
00000
10001
00000
00000
00000
00000
00000
00000
00000
00010
01000
00000
00000
00000
00000
00000
00000
00001
10000
00000
00000
00000
00000
00000
00000
00100
00000
00000
00000
00000
10000
00000
00000
00100
00000
00000
00000
00000
00000
00000
00000
00001
00000
00000
00000
00100
00000
00000
00000
00001
00000
00000
00000
00000
00000
00000
00000
,
00010
00000
00000
01000
00000
00000
00000
00000
00000
00000
00000
00000
00000
00000
00000
00000
00000
01100
00000
00000
00000
00000
00000
00000
00000
00000
00000
00000
00000
00000
00000
00000
00000
00100
00000
00000
00000
00000
00000
00001
00000
00000
00000
00000
00000
00000
00000
00000
00001
00000
00000
00000
00000
00000
00000
00000
00100
00000
00000
00000
00000
00000
00000
00000
,
00000
00001
00000
00000
00000
00000
00000
00000
00100
00000
00000
00000
00000
00000
00000
00000
00000
00001
00000
00000
00000
00000
00000
00000
00000
00000
00101
00000
00000
00000
00000
00000
00000
00101
00000
00000
00000
00000
00000
00101
00000
00000
00000
00000
00000
00000
00000
00000
00000
10000
00000
00000
00000
00000
00000
00000
00000
00000
00010
00000
00000
00000
00000
00000
,
00000
00000
10000
00000
00000
00000
00000
00000
00000
00010
00000
00000
00000
00000
00000
00000
00000
10000
00000
00000
00000
00000
00000
00010
00000
00000
00000
00000
00000
00000
00000
00000
01000
00100
00000
00000
00000
00000
00000
00000
01100
00000
00000
00000
00000
00000
00000
01000
00000
00000
00000
00000
00000
00000
00010
00000
00000
00000
00000
00000
00000
00000
00000
00100
,
00000
00000
00000
00000
00000
00000
00000
00001
00000
00000
00000
00000
00000
00000
00000
00000
00010
00000
00000
00000
00000
00000
00000
00000
00100
00000
00000
00000
00000
00000
00000
00000
00000
00110
00000
00000
00000
00000
00000
00000
00000
00110
00000
00000
00000
00000
00000
00000
00100
00000
00000
00000
00000
00000
00000
00000
00000
10000
00000
00000
00000
00000
00000
00000
,
00000
00001
00000
00000
00000
00000
00000
00000
01000
00000
00000
00000
00000
00000
00000
00000
00000
00001
00000
00000
00000
00000
00000
00000
00100
00000
00000
00000
00000
00000
00000
00000
00000
00000
00000
10100
00000
00000
00000
00000
00000
00000
10100
00000
00000
00000
00000
00000
00000
10000
00000
00000
00000
00000
00000
00000
00000
00000
00100
00000
00000
00000
00000
00000
,
00000
01000
00000
00000
00000
00000
00000
00000
00010
00000
00000
00000
00000
00000
00000
01000
00000
00000
00000
00000
00000
00000
00000
00100
00000
00000
00000
00000
00000
00000
00000
00000
00000
01010
00000
00000
00000
00000
00000
00000
00000
01010
00000
00000
00000
00000
00000
00000
00100
00000
00000
00000
00000
00000
00000
00000
00000
00010
00000
00000
00000
00000
00000
00100
,
00000
00000
00000
00000
00000
00000
00000
00000
00001
00000
00000
00000
00000
00000
00000
00000
00010
00000
00000
00000
00000
00000
00000
00100
00000
00000
00000
00000
00000
00000
00000
00000
00000
10001
00000
00000
00000
00000
00000
00001
00000
10000
00000
00000
00000
00000
00000
00000
10001
00000
00000
00000
00000
00000
00000
00000
00100
00000
00000
00000
00000
00000
00000
00000
,
00010
00000
00000
00000
00000
00000
00000
00000
00100
00000
00000
00000
00000
00000
00000
00000
00010
00000
00000
00000
00000
00000
00000
00100
00000
00000
00000
00000
00000
00000
00000
00000
00010
10000
00000
00000
00000
00000
00000
00000
00010
10000
00000
00000
00000
00000
00000
00000
00000
10010
00000
00000
00000
00000
00000
00000
00000
00100
00000
00000
00000
00000
00000
00000
,
00000
00001
00000
00000
00000
00000
00000
00000
00100
00000
00000
00000
00000
00000
00000
00000
00001
00000
00000
00000
00000
00000
00000
00000
00001
00000
00000
00000
00000
00000
00000
00000
00000
01000
00000
00001
00000
00000
00000
00000
00000
01000
00001
00000
00000
00000
00000
00000
00000
00000
00001
00000
00000
00000
00000
01000
00000
00000
00001
00000
00000
00000
00000
00000
,
00000
01000
00000
00000
00000
00000
00001
00000
00000
00000
00000
00000
01000
00000
00000
00000
00000
00000
00000
00100
00000
00000
00000
00000
00001
00000
00000
00000
00000
00000
00000
00000
00002
00000
00000
00000
00000
00000
00000
00000
00000
00000
00000
00000
00000
00000
00000
00000
00000
00000
00003
00000
00000
00000
00000
00100
00000
00000
00000
00000
00000
00000
00000
00100
,
00000
00000
00000
01000
00000
00000
00000
00000
00100
00000
00000
00000
00000
01000
00000
00000
00010
00000
00000
00000
00000
00000
00000
00000
00000
00000
00000
00000
00000
00000
00000
00100
00000
00000
00000
00010
00000
00000
00000
00000
00000
00001
00000
00000
00000
00010
00000
00000
00000
00100
00000
00000
00000
00000
00000
00000
00000
00100
00000
00000
00000
00000
00000
01000
,
00000
00000
00000
00000
00000
00000
00100
00000
00000
00000
01000
00000
00000
00000
00000
00100
00000
00000
00000
00000
10000
00000
00000
00000
00000
00000
00000
00000
00000
10000
00000
00000
00000
00100
00000
00000
10000
00000
00000
00000
00000
00000
00001
00000
00000
00000
00000
00000
00100
00000
00000
00000
10000
00000
00000
00000
00000
00000
00000
00000
00000
00000
00100
00000
,
00000
10000
00000
00000
00000
00000
00100
00000
10000
00000
00000
00000
00001
00000
00000
00000
10000
00000
00000
00000
00000
00000
00000
00000
00000
00000
00000
00000
00000
00000
00000
00100
00000
00000
00010
00000
00000
00000
00001
00000
00000
00000
00000
00010
00000
00000
00100
00000
00000
00000
00000
00000
00000
00000
00100
00000
00000
00000
00000
00000
01000
00000
00000
00000
,
00000
00000
00100
00000
00000
00000
01000
00000
00000
00000
00100
00000
00000
00000
01000
00000
00000
00000
00000
00000
00000
00000
00000
00000
00000
00000
00000
00000
00000
00000
00000
00000
00000
00000
00010
00100
00000
00000
00000
00000
00000
00001
00000
00000
00000
00000
00000
00000
00000
00100
00000
00000
00000
00000
00000
00000
00000
00000
00000
00000
00000
00000
00000
00000
,
00000
00001
00000
00000
00100
00000
00000
00000
00001
00000
00000
00000
00000
01000
00000
00000
00000
00010
00000
00000
00000
00000
00000
00000
00000
00000
00000
00000
00000
00000
00000
10000
00000
00000
00100
00000
00000
00000
00000
00000
10000
00000
00100
00000
00000
00000
00000
00000
00000
00000
00001
00100
00000
00000
00000
00010
00000
00000
00100
00000
00000
00000
00000
01000
,
00000
00000
00000
00100
00000
00000
00000
00000
01000
00000
00000
00000
00100
00000
00000
00000
01000
00000
00000
00000
00000
00000
00000
00000
00000
00000
00000
00000
00000
00000
00000
00000
00000
00000
01010
00000
00000
00000
00000
00000
00000
01010
00000
00000
00000
00000
00001
10000
00000
00000
00000
00000
00000
00000
00000
00000
00000
00000
01010
00000
00000
00000
00000
00000
,
00000
00000
01010
00000
00000
00000
00000
00000
00000
01010
00000
00100
00000
00000
10000
00000
00000
00000
00000
00000
00000
00000
00000
00000
00000
00000
00000
00000
00000
00000
00000
00000
00100
00000
00000
10000
00000
00000
00000
00000
00001
00000
00000
00000
00100
00000
00000
00000
00001
00000
00000
00100
00000
00000
00000
00000
00000
00000
00000
00010
00000
00000
00000
00000
,
01000
00000
00000
00100
00000
00000
00000
00000
00000
10000
00000
00000
00001
00000
01000
00000
00000
00010
00000
00000
00000
00000
00000
00000
00000
00000
00000
00000
00000
00000
00000
00000
00000
00000
10100
00000
00000
00000
00000
00000
00000
00000
10100
00000
00000
00000
00000
00000
00000
00010
00000
00000
00000
00000
00100
00000
00000
00000
00000
00000
00000
00001
00000
00000
,
00000
00000
00010
00000
00000
00100
00000
00000
00000
00000
00000
01000
00000
00000
00000
00100
00000
00000
01000
00000
00000
00000
00000
00000
00000
00000
00000
00000
00000
00000
00000
00000
00000
10000
00000
00000
00000
00000
00000
00000
00000
00100
00000
00000
00000
00000
00000
00000
00000
10000
00000
00000
00000
00000
00000
00010
00000
00000
00000
00000
00000
00000
00000
00000
,
00000
00100
00000
00000
00000
00010
00000
00000
00000
00100
00000
00000
00000
00010
00000
00000
00000
00000
00000
00000
01000
00000
00000
00000
00000
00000
00000
00000
00000
01000
00000
00000
00000
00000
00000
00100
00000
00000
00000
00000
00000
00000
00000
00000
00001
00000
00000
00000
00000
00000
00100
00000
00000
00000
00000
00000
00000
00000
00000
00001
00000
00000
00000
00000
,
00000
00000
00000
00101
00000
00000
00000
00000
00000
00000
00000
00101
00000
00000
00000
00000
00000
01000
00000
00000
00000
00000
00000
00000
00000
00000
00000
00000
00000
00000
00000
00000
01000
00000
00000
00000
00000
00000
00000
00100
00000
00000
00000
00000
00000
00000
00000
10000
00000
00000
00000
00000
00000
00000
00000
00000
00010
00000
00000
00000
00000
00000
00000
00000
,
00100
00000
00000
00000
00000
00010
00000
00000
00000
00000
00100
00000
00000
00000
00000
00000
00000
00000
00000
00000
00000
00000
00000
00000
00000
00000
00000
00000
00000
00000
00000
00000
00000
00000
00000
00100
00000
00000
00000
00000
00000
10000
00000
00000
00000
00000
01000
00000
00000
00100
00000
00000
00000
00000
00000
00000
00000
00000
00000
00000
00000
00000
00000
00000
,
00100
00000
00000
00010
00000
00000
00000
00000
00000
00001
00000
00000
00000
00000
00010
00000
00000
00100
00000
00000
00000
00000
00000
00000
00000
00000
00000
00000
00000
00000
00000
00001
00000
00000
00000
00100
00000
00000
00000
00001
00000
00000
00000
00000
00100
00000
00000
00000
00000
00000
00000
00000
00000
00000
00000
00000
00010
00000
00000
00000
00000
00000
00000
00000
,
00000
00100
00000
00000
00000
00000
01000
00000
00000
00000
00000
00010
00000
00000
01000
00000
00100
00000
00000
00000
00000
00000
00000
00000
00000
00000
00000
00000
00000
00000
00000
00000
00000
10100
00000
00000
00000
00000
00000
00000
00000
00010
00100
00000
00000
00000
00000
00000
00000
00000
00000
00000
00000
00000
00000
00000
00000
00000
00010
00000
10000
00000
00000
00000
,
00100
00000
00000
00000
00000
00000
00000
00010
00000
00000
00100
00000
00000
00100
00000
00000
10000
00000
00000
00000
00000
00000
00000
00000
00000
00000
00000
00000
00000
00000
00000
00000
00001
01000
00000
00000
00000
00000
00000
00000
00000
00001
00000
00000
01000
00000
00000
00000
00000
00001
00000
00000
00000
00000
00000
00000
00100
00000
00000
00000
00000
00000
00000
00000
,
00000
00000
00000
01001
00000
00000
00000
00000
00000
00001
00000
01000
00000
00000
00000
00001
01000
00000
00000
00000
00000
00000
00000
00000
00000
00000
00000
00000
00000
00000
00000
00000
00000
00000
10010
00000
00000
00000
00000
00000
00100
00000
00000
00000
00000
00000
00000
00010
00000
00000
00000
00000
00000
00000
00000
00000
00000
00000
00000
00000
00000
00000
00000
00010
,
00000
00000
00000
01000
00000
00100
00000
00000
00000
00000
00000
00000
01001
00000
00000
00000
00000
00000
00000
00000
00000
00000
00000
00000
00000
00000
00000
00000
00000
00000
00000
00000
01001
00000
00000
00000
00000
00000
00000
00000
00100
00000
00000
00000
00000
00000
00000
10010
00000
00000
00000
00000
00000
00000
00000
00100
00000
00000
00000
00000
00000
00000
00000
00000
,
01001
00000
00000
00000
00000
00000
00000
00000
00001
01000
00000
00000
00000
00000
00000
00001
01000
00000
00000
00000
00000
00000
00000
00000
00000
00000
00000
00000
00000
00000
00000
00100
00000
00000
00000
10010
00000
00000
00000
00000
00000
00000
00100
00000
00000
00000
10000
00000
00010
00000
00000
00000
00000
00000
00000
00000
00000
10100
00000
00000
00000
00000
00000
00000
,
00000
01100
00000
00000
00000
00000
00000
00000
00000
00000
01100
00000
00000
00000
00000
00001
00000
00000
00000
00000
00000
00000
00000
00000
00000
00000
00000
00000
00000
00000
00000
00000
00000
00110
00000
00000
00000
00000
00000
00000
00001
01000
00000
00000
00000
00000
00000
00000
00010
00000
00000
00100
00000
00000
00000
00000
00000
00000
00000
00000
00000
00000
00000
00000
,
00000
00000
00000
01001
00000
00000
00000
00000
00000
00000
00000
00000
00100
00000
00010
00000
01000
00000
00000
00000
00000
00000
00000
00000
00000
00000
00000
00000
00000
00000
00000
00000
00000
00000
00000
10100
00000
00000
00000
00000
00000
10100
00000
00000
00000
00000
00000
00000
00000
00010
00100
00000
00000
00000
00000
00000
00000
00000
00000
00000
00000
00000
00000
00000
,
00000
01001
00000
00000
00000
00000
00000
00000
00100
00000
00000
00000
00000
00000
00000
00000
00000
00000
01001
00000
00000
00000
00000
00000
00000
00000
00000
00000
00000
00000
00000
00000
01010
00000
00000
00000
00000
00000
00000
00000
01010
00000
00000
00000
00000
00000
00000
00000
00001
00100
00000
00000
00000
00000
00000
00010
00000
01000
00000
00000
00000
00000
00000
00100
,
00000
00000
10000
00000
00000
00000
00000
00000
00001
00000
00000
00000
01000
00000
00000
00000
00000
00100
00000
00000
00000
00000
00000
00000
00000
00000
00000
00000
00000
00000
00000
00101
00000
00000
00000
00000
00000
00000
00000
00000
00000
00000
01100
00000
00000
00000
00000
00000
00000
00000
00000
00000
00000
00000
00000
00000
00000
00101
00000
00000
00000
00000
00000
00000
,
00101
00000
00000
00000
00000
00000
00000
00000
00000
00100
01000
00000
00000
00000
00000
00000
01000
00000
00001
00000
00000
00000
00000
00000
00000
00000
00000
00000
00000
00000
00000
00000
00000
00010
10000
00000
00000
00000
00000
00000
00000
00001
01000
00000
00000
00000
00000
00000
00010
00000
00000
10000
00000
00000
00000
00000
00001
00000
01000
00000
00000
00000
00000
00000
,
00000
00010
00000
10000
00000
00000
00000
00000
00001
00000
00000
01000
00000
00000
00000
00000
00010
00000
10000
00000
00000
00000
00000
00000
00000
00000
00000
00000
00000
00000
00000
00000
00000
00100
00000
00000
00000
01000
00000
00000
00000
00100
00000
00000
00000
00000
01000
00000
00000
00000
00000
00010
00000
00000
00000
00000
00000
00100
00000
00000
00000
00000
00000
00000
,
00000
00001
00000
00000
00000
00000
00000
00100
00000
00000
00000
00001
00000
00000
00000
00100
00000
00000
00000
00001
00000
00000
00000
00000
00000
00000
00000
00000
00000
00000
00000
00000
00010
00000
00000
00000
00000
00000
00000
00100
00000
00000
00000
00000
00000
00000
00000
00000
00010
00000
00000
00000
00000
00000
00000
00100
00000
00000
00000
00000
00000
00000
00000
00010
,
00000
00000
00000
00000
00000
00000
01000
00000
00000
00000
00000
00100
00000
00000
00000
01000
00000
00000
00000
00100
00000
00000
00000
00000
00000
00000
10000
00000
00000
00000
00000
00000
00000
00000
00000
00100
00000
00000
00000
00000
00000
10000
00000
00001
00000
00000
00000
00000
00000
00000
00000
00001
00000
00000
00000
00000
00000
10000
00000
00001
00000
00000
00000
00000
,
00000
00000
10001
00000
00000
00000
00000
00000
00000
00010
01000
00000
00000
00000
00000
10100
00000
00000
00000
00000
00000
00000
00000
00000
00000
00000
00000
00000
00000
00000
00000
00000
00100
00000
00000
00000
00000
00000
00000
00000
00001
00000
00000
00000
00000
00000
00000
00100
00000
00000
00000
00000
00000
00000
00000
00001
00000
00000
00000
00000
00000
00000
00000
00000
,
00101
00000
00000
00000
01000
00000
00000
00000
00101
00000
00000
00000
00000
01000
00000
00010
00000
00000
00000
00000
00000
00000
00000
00000
00000
00000
00000
00000
00000
00000
00000
00000
00000
10010
00000
00000
00000
00000
00000
00100
00000
00000
00000
00000
00000
00000
00000
00001
00000
00000
00000
00000
00000
10000
00000
00000
00000
00000
00000
00000
00000
00000
00000
00100
,
00000
00000
00000
00000
10000
00000
00000
00000
00000
00100
00000
00000
00000
00000
01010
00000
00000
00000
00000
00000
00000
00000
00000
00000
00000
00000
00000
00000
00000
00000
00000
00100
00000
00000
00000
01000
00000
00000
00000
00100
00000
00000
00000
00000
01000
00000
00000
00000
00000
00010
00000
00000
00000
00000
00000
00100
00000
00000
00000
00000
00000
00000
00000
00001
,
00000
00000
00000
00000
00010
00000
00000
00000
00000
00100
00000
00000
00000
00000
01000
00000
00000
00000
00000
00000
10000
00000
00000
00000
00000
00000
00001
00000
00000
00000
00000
00000
10000
00000
00000
00001
00000
00000
00000
00000
10000
00000
00000
00001
00000
00000
00000
00000
10000
00000
00000
00000
00001
00000
00000
00000
00000
10000
00000
00000
00000
00001
00000
00000
,
00000
00000
10000
00000
00000
00000
00000
00001
00000
00000
00000
10000
00000
00000
00000
00001
00000
00000
00000
00000
10000
00000
00000
00001
00000
00000
00000
00001
10000
00000
00000
00000
00000
00000
00000
00000
00010
00000
00000
00100
00000
00000
00000
00010
00000
00000
00000
00100
00000
00000
00000
01000
00100
00000
00000
00000
00000
00000
00000
00000
01100
00000
00000
00000
,
00000
00000
00000
00000
00010
10000
00000
00000
00000
00000
00100
00000
00000
10010
00000
00000
00000
00100
00000
00000
00000
00000
10010
00000
00000
00000
00000
00010
00000
00000
01000
00000
00000
00000
00000
00001
01000
00000
00000
00000
00000
00000
00000
00000
00000
00000
00000
00000
00000
00000
00000
00000
00000
00000
00000
00000
00000
00000
00000
00000
00000
00000
00000
00000
;

//---------------dance-single - ----------------
#NOTES:
     dance-single:
     :
     Hard:
     11:
     0.820,0.953,0.132,0.158,0.743,1449.000,35.000,42.000,0.000,0.000:
1000
0100
0001
0010
0000
0000
0000
0000
,
1000
0100
0010
0001
0000
0000
0000
0000
,
1000
0100
0010
0001
0000
0000
0000
0000
,
0000
0000
0010
0100
0000
0100
0100
0000
,
1000
0100
0001
0010
0000
0000
0000
0000
,
1000
0100
0010
0001
0000
0000
0000
0000
,
1000
0000
0100
0000
0001
0000
0010
0000
0000
0000
1000
0100
0010
0001
0010
0100
,
2000
0000
3100
0010
0001
0100
0000
0100
,
1000
0000
0200
0000
0000
0000
0000
0000
0000
0300
0000
0000
0000
0000
1000
0000
,
0100
0001
0010
1000
0010
0100
0000
0100
,
2000
0000
3000
0000
,
2000
0000
3100
0010
0001
0100
0000
0100
,
1000
0200
0000
0000
0000
0300
0000
1000
,
0100
0010
0100
0010
0001
0020
0000
0230
,
0000
2300
0000
0000
0000
0000
3000
0000
1000
0000
0002
0000
0000
0000
2003
0000
,
0000
3200
0000
0320
0000
0130
0000
0100
,
1000
0200
0000
0000
0300
0000
0000
1000
,
0100
0001
0010
0100
0010
0200
0300
0100
,
2000
0000
0000
3000
0000
0000
0000
0000
,
2000
0000
3100
0010
0001
0100
0000
0100
,
1000
0200
0000
0000
0300
0000
0000
1000
,
0100
0010
0100
0010
0001
0020
0000
0000
,
0000
0000
0000
0000
0000
0230
0000
0000
,
0300
0000
0000
0200
0000
0320
0000
0000
,
0000
0000
0000
0000
0000
0000
0000
0000
0000
0000
1030
0100
0010
0001
0010
0100
,
1000
0100
0010
0001
0010
0100
1000
0100
0010
0001
1100
0000
0110
0000
0011
0000
,
1100
0000
0110
0000
0011
0000
1100
0000
0110
0000
1000
0100
1000
0000
0010
0000
,
0001
0000
0100
0010
0001
0000
0010
0000
0100
0000
0001
0010
0100
0000
0001
0000
,
1000
0000
0100
0010
0001
0000
1000
0100
0010
0100
0010
0001
0010
0000
0100
0000
,
1000
0000
0001
1000
0001
0000
0100
1000
0100
0010
0001
0010
0100
0000
1000
0000
,
0100
0000
0001
0100
0010
0000
1000
0100
0010
0001
0100
1000
0010
0000
0100
0000
,
0001
0000
0010
0100
0001
0000
0010
0000
0100
0000
0001
1000
0001
0000
0100
0000
,
0001
0000
1000
0010
0100
0000
0100
1000
0010
0001
1000
0010
0001
0000
1000
0000
,
0010
0000
0001
0010
1000
0000
0100
0001
0010
1000
0100
0010
0001
0000
0100
0000
,
0010
0000
1000
0001
0100
0000
0100
0010
0001
0010
0100
0010
0100
0000
1000
0000
,
0001
0000
0010
1000
0001
0000
1000
0000
0010
0000
0001
1000
0010
0000
0001
0000
,
0100
0000
0010
1000
0001
0000
0100
0010
1000
0010
1000
0001
1000
0000
0010
0000
,
0100
0000
0001
0100
0001
0000
0010
0100
0010
1000
0001
1000
0010
0000
0100
0000
,
0010
0000
0001
0010
1000
0000
0100
0010
1000
0001
0010
0100
1000
0000
0010
0000
,
0001
0000
1000
0010
0001
0000
1000
0000
0010
0000
0001
0100
0001
0000
0010
0000
,
0001
0000
0100
1000
0010
0000
0010
0100
1000
0001
0100
1000
0001
0000
0100
0000
,
1000
0000
0001
1000
0100
0000
0010
0001
1000
0100
0010
1000
0001
0000
0010
0000
,
1000
0000
0100
0001
0010
0000
0010
1000
0001
1000
0100
0001
0010
0000
0100
0000
,
1000
0000
0100
0010
0001
0000
1000
0000
0010
0000
0100
0010
1000
0000
0100
0000
,
0010
0000
1000
0010
0001
0000
0010
0100
0001
1000
0100
0010
0100
0000
1000
0000
,
0001
0000
0010
1000
0100
0000
0010
0001
1000
0100
0001
0100
0010
0000
1000
0000
,
0100
0000
0010
1000
0100
0000
0001
0100
1000
0001
0100
0010
1000
0000
0001
0000
,
0010
0000
0100
1000
0100
0000
0010
0000
0001
0000
1000
0001
0100
0000
0010
0000
,
0100
0000
1000
0010
0001
0000
1000
0001
0100
0010
0100
1000
0010
0000
1000
0000
,
0100
0000
1000
0001
0010
0000
0100
0001
0010
0100
1000
0001
0100
0000
1000
0000
,
0010
0000
0100
0010
1000
0000
0010
1000
0010
1000
0101
0010
0001
0000
1000
0000
,
0010
0000
0100
1000
0001
0000
1000
0000
0100
0000
0110
0001
1000
0000
0001
0000
,
0100
0000
0010
0001
1000
0000
0001
0100
1000
0001
1010
0001
0100
0000
1000
0000
,
0010
0000
0100
0001
0010
0000
0100
0001
0010
1000
0011
0100
1000
0000
0100
0000
,
0001
0000
0010
0100
0001
0000
0010
1000
0010
0100
1001
0010
0100
0000
0001
0000
,
0100
0000
1000
0001
0100
0000
0010
0000
0001
0000
1010
0001
0100
0000
1000
0000
,
0100
0000
0001
0010
0100
0000
0010
1000
0001
0100
0011
1000
0100
0000
0001
0000
,
0100
0000
0011
0100
1000
0000
0010
0001
0100
1000
0101
0010
1000
0000
0010
0000
,
0001
0000
0100
0010
0001
0000
0100
0010
0100
0010
0100
0000
0000
1000
0000
0000
,
0100
0000
0000
0000
0010
0000
0000
0000
0000
0000
0000
0000
0000
0000
0000
0000
1000
0000
0000
0000
0010
0000
0000
0100
0000
0000
0001
0000
0000
0000
0000
0000
,
0100
0000
1000
0000
0000
0001
0000
0000
0000
0000
0100
0000
0010
0010
0000
0000
,
1000
0000
1000
0000
0001
0001
0000
0000
0100
0000
0100
0000
0010
0010
0000
0000
,
0001
0000
0001
0000
1000
1000
0000
0000
0000
0000
0100
0000
0000
0010
0000
0000
,
0001
0000
0000
0000
0010
0000
0000
0000
0000
0000
0000
0000
0000
0000
0000
0000
0001
0000
0000
0000
0100
0000
0000
1000
0000
0000
0001
0000
0000
0000
0000
0000
,
0100
0000
0001
0000
0000
0001
0000
0000
0000
0000
0010
0000
0100
0100
0000
0000
,
1000
0000
1000
0000
0100
0100
0000
0000
0001
0000
0001
0000
0010
0010
0000
0000
,
0001
0000
0001
0000
1000
1000
0000
0000
0000
0000
0001
0000
0000
1000
0000
0000
,
0001
0000
0000
0000
0100
0000
0000
0000
0000
0000
0000
0000
0000
0000
0000
0000
0010
0000
0000
0000
0100
0000
0000
1000
0000
0000
0010
0000
0000
0000
0000
0000
,
0001
0000
1000
0000
0000
0100
0000
0000
0000
0000
0100
0000
0001
0001
0000
0000
,
1000
0000
1000
0000
0100
0100
0000
0000
0010
0000
0010
0000
1000
1000
0000
0000
,
0001
0000
0001
0000
1000
1000
0000
0000
0000
0000
0100
0000
0000
1000
0000
0000
,
0010
0000
0000
0000
1000
0000
0000
0000
0000
0000
0000
0000
0000
0000
0000
0000
0001
0000
0000
0000
0100
0000
0000
1000
0000
0000
0010
0000
0000
0000
0000
0000
,
0010
0000
1000
0000
0000
0010
0000
0000
0000
0000
1000
0000
0001
0001
0000
0000
,
1000
0000
1000
0000
0010
0010
0000
0000
0100
0000
0100
0000
0010
0010
0000
0000
,
0001
0000
0001
0000
0100
0100
0000
0000
0000
0000
0001
0000
0000
0000
0010
0100
,
0010
0100
0010
0000
0000
0000
0000
0000
1000
0000
1000
0000
0000
0000
0001
1000
,
0001
1000
0001
0000
1000
0001
1000
0001
1000
0001
1000
0000
0000
0000
1000
0010
,
1000
0010
1000
0000
0000
0000
0000
0000
0010
0000
0100
0000
0000
0000
0001
0100
,
0001
0100
0001
0000
0100
0001
0100
0000
0001
0100
0001
0000
0000
0000
0100
1000
,
0100
1000
0100
0000
0000
0000
0000
0000
0001
0000
1000
0000
0000
0000
0010
0001
,
0010
0001
0010
0000
0100
0010
0100
0010
0100
0010
0100
0000
0000
0000
1000
0001
,
1000
0001
1000
0000
0000
0000
0000
0000
0100
0000
0001
0000
0000
0000
0010
1000
,
0010
1000
0010
0000
1000
0010
1000
0000
0010
1000
0010
0000
0000
0000
0100
0001
,
0100
0001
0100
0000
0000
0000
0000
0000
1000
0000
0100
0000
0000
0000
0001
1000
,
0001
1000
0001
0000
1000
0001
1000
0001
1000
0001
1000
0000
0000
0000
1000
0100
,
1000
0100
1000
0000
0000
0000
0000
0000
0010
0000
1000
0000
0000
0000
0100
0001
,
0100
0001
0100
0000
0001
0100
0001
0000
0100
0001
0100
0000
0000
0000
0100
0010
,
0100
0010
0100
0000
0000
0000
0000
0000
0001
0000
1000
0000
0000
0000
0010
0001
,
0010
0001
0010
0000
0100
0010
0100
0010
0100
0010
0100
0000
0000
0000
1000
0001
,
1000
0001
1000
0000
0000
0000
0000
0000
0100
0000
0001
0000
0000
0000
1000
0010
,
1000
0010
1000
0010
1000
0000
0100
0000
0001
0000
0010
0000
0000
0000
0000
0000
,
0000
0000
1000
0100
0010
0001
0000
0000
,
0000
0000
1000
0100
0010
0001
0000
0000
,
0000
0000
0000
0000
0010
0100
0000
0100
,
0100
0000
1000
0100
0001
0010
0000
0000
,
0000
0000
1000
0100
0010
0001
0000
0000
,
0000
0000
0000
0000
1000
0000
0100
0000
0001
0000
0010
0000
0000
0000
1000
0100
,
0010
0001
0010
0100
2000
0000
0000
0000
3100
0000
0010
0000
0001
0000
0100
0000
,
0000
0000
0100
0000
1000
0000
0200
0000
0000
0000
0000
0000
0000
0300
0000
0000
,
0000
1000
0100
0001
0010
1000
0010
0100
,
0000
0100
2000
0000
0000
0000
3000
0000
,
0000
0000
2000
0000
3100
0010
0001
0100
,
0000
0100
1000
0200
0000
0000
0000
0300
,
0000
1000
0100
0010
0100
0010
0001
0020
,
0000
0000
0230
0000
0000
2300
0000
0000
0000
0000
3000
0000
1000
0000
0002
0000
,
0000
2003
0000
3200
0000
0320
0000
0130
,
0000
0100
1000
0200
0000
0000
0300
0000
,
0000
1000
0100
0001
0010
0100
0010
0200
,
0300
0100
2000
0000
0000
3000
0000
0000
,
0000
0000
2000
0000
3100
0010
0001
0100
,
0000
0100
1000
0200
0000
0000
0300
0000
,
0000
1000
0100
0010
0100
0010
0001
0020
,
0000
0000
0000
0000
0000
0000
0000
0230
,
0000
0000
0300
0000
0000
0200
0000
0320
,
0000
0000
0000
0000
0000
0000
0000
0000
0000
0000
0000
0000
0000
0000
1030
0100
,
0010
0001
0010
0100
1000
0100
0010
0001
0010
0100
1000
0100
0010
0001
1100
0000
,
0110
0000
0011
0000
1100
0000
0110
0000
0011
0000
1100
0000
0110
0000
0100
0010
,
0100
0000
0001
0000
1000
0000
0010
0001
1000
0000
0001
0000
0010
0000
1000
0001
,
0010
0000
1000
0000
0100
0000
0010
0001
1000
0000
0100
0010
0001
0010
0001
1000
,
0001
0000
0010
0000
0100
0000
1000
0100
1000
0000
0010
0100
0010
0001
1000
0001
,
0010
0000
0100
0000
0010
0000
1000
0010
0001
0000
0100
0010
0001
1000
0010
0100
,
0001
0000
0010
0000
1000
0000
0001
0010
1000
0000
0001
0000
0010
0000
1000
0100
,
1000
0000
0010
0000
1000
0000
0100
0001
0010
0000
0010
0100
0001
1000
0100
0001
,
1000
0000
0100
0000
0001
0000
1000
0001
0100
0000
0010
1000
0001
0100
0010
0001
,
1000
0000
0010
0000
0001
0000
0100
1000
0010
0000
0010
0001
1000
0001
0010
0001
,
0010
0000
0100
0000
1000
0000
0001
0100
1000
0000
0100
0000
0001
0000
1000
0100
,
0001
0000
1000
0000
0010
0000
0001
0100
1000
0000
0010
0001
0100
0001
0100
1000
,
0100
0000
0001
0000
0010
0000
1000
0010
1000
0000
0001
0010
0001
0100
1000
0100
,
0001
0000
0010
0000
0001
0000
1000
0001
0100
0000
0010
0001
0100
1000
0001
0010
,
0100
0000
0001
0000
1000
0000
0100
0001
1000
0000
0100
0000
0001
0000
1000
0010
,
1000
0000
0001
0000
1000
0000
0010
0100
0001
0000
0001
0010
0100
1000
0010
0100
,
1000
0000
0010
0000
0100
0000
1000
0100
0010
0000
0001
1000
0100
0010
0001
0100
,
1000
0000
0001
0000
0100
0000
0010
1000
0001
0000
0001
0100
1000
0100
0010
1000
,
0001
0000
0010
0000
0100
0000
0010
0001
1000
0000
0100
0000
0001
0000
0010
0001
,
0100
0000
0010
0000
0001
0000
0100
0001
1000
0000
0001
0010
1000
0100
0010
0001
,
0010
0000
0100
0000
1000
0000
0001
0100
0010
0000
0001
1000
0100
0010
1000
0010
,
0001
0000
0100
0000
0010
0000
0001
0100
0010
0000
1000
0010
0100
1000
0010
0001
,
0100
0000
1000
0000
0001
0000
0010
0100
0010
0000
0001
0000
1000
0000
0100
1000
,
0010
0000
0001
0000
0010
0000
0100
0001
1000
0000
0100
1000
0010
0001
0010
0100
,
0001
0000
0100
0000
0010
0000
0100
1000
0001
0000
0010
1000
0001
0010
0100
1000
,
0010
0000
0100
0000
0001
0000
0010
0001
0100
0000
0001
0100
0001
0100
1010
0001
,
1000
0000
0100
0000
0001
0000
0010
0100
1000
0000
0100
0000
0010
0000
0011
1000
,
0100
0000
1000
0000
0010
0000
0001
1000
0100
0000
1000
0010
0100
1000
0101
1000
,
0010
0000
0100
0000
0001
0000
0010
1000
0001
0000
0010
1000
0001
0100
1001
0010
,
0100
0000
0010
0000
1000
0000
0001
0010
1000
0000
0001
0100
0001
0010
1100
0001
,
0010
0000
1000
0000
0010
0000
0100
1000
0010
0000
0001
0000
1000
0000
0101
1000
,
0010
0000
0100
0000
0010
0000
1000
0001
0010
0000
0001
0100
1000
0010
1001
0100
,
0010
0000
1000
0000
0010
0000
1001
0010
0100
0000
0001
1000
0010
0100
1010
0001
,
0100
0000
0001
0000
1000
0000
0010
0001
1000
0000
0010
0001
0010
0001
0010
0000
,
0000
0000
0100
0000
0000
0000
0000
0000
0010
0000
0000
0000
0001
0000
0000
0000
0000
0000
0000
0000
0000
0000
0000
0000
0100
0000
0000
0000
0001
0000
0000
0010
,
0000
1000
0000
0000
0010
0000
0100
0000
0000
1000
0000
0000
0000
0000
0010
0000
,
0001
0001
0000
0000
0100
0000
0100
0000
1000
1000
0000
0000
0010
0000
0010
0000
,
0001
0001
0000
0000
1000
0000
1000
0000
0100
0100
0000
0000
0000
0000
0010
0000
,
0000
0000
0001
0000
0000
0000
0000
0000
1000
0000
0000
0000
0001
0000
0000
0000
0000
0000
0000
0000
0000
0000
0000
0000
1000
0000
0000
0000
0010
0000
0000
0100
,
0000
1000
0000
0000
0010
0000
1000
0000
0000
1000
0000
0000
0000
0000
0001
0000
,
0010
0010
0000
0000
0100
0000
0100
0000
0010
0010
0000
0000
1000
0000
1000
0000
,
0001
0001
0000
0000
1000
0000
1000
0000
0100
0100
0000
0000
0000
0000
1000
0000
,
0000
0000
0100
0000
0000
0000
0000
0000
1000
0000
0000
0000
0010
0000
0000
0000
0000
0000
0000
0000
0000
0000
0000
0000
0001
0000
0000
0000
0010
0000
0000
0100
,
0000
0001
0000
0000
1000
0000
0100
0000
0000
0010
0000
0000
0000
0000
0010
0000
,
1000
1000
0000
0000
0100
0000
0100
0000
0010
0010
0000
0000
0001
0000
0001
0000
,
0100
0100
0000
0000
1000
0000
1000
0000
0100
0100
0000
0000
0000
0000
0010
0000
,
0000
0000
0100
0000
0000
0000
0000
0000
0001
0000
0000
0000
0100
0000
0000
0000
0000
0000
0000
0000
0000
0000
0000
0000
1000
0000
0000
0000
0010
0000
0000
0100
,
0000
0001
0000
0000
0001
0000
0100
0000
0000
0001
0000
0000
0000
0000
0100
0000
,
1000
1000
0000
0000
0100
0000
0100
0000
0001
0001
0000
0000
0010
0000
0010
0000
,
0001
0001
0000
0000
1000
0000
1000
0000
0010
0010
0000
0000
0000
0000
0001
0000
,
0000
0000
1000
0000
0000
0000
0000
0000
0100
0000
0000
0000
1000
0000
0000
0000
0000
0000
0000
0000
0000
0000
0000
0000
0010
0000
0000
0000
0001
0000
0000
1000
,
0000
0100
0000
0000
0100
0000
1000
0000
0000
0100
0000
0000
0000
0000
1000
0000
,
0010
0010
0000
0000
1000
0000
1000
0000
0100
0100
0000
0000
0001
0000
0001
0000
,
0100
0100
0000
0000
0010
0000
0010
0000
0001
0001
0000
0000
0000
0000
0010
0000
,
0000
0000
0001
0000
0000
0000
0000
0000
0100
0000
0000
0000
0010
0000
0000
0000
0000
0000
0000
0000
0000
0000
0000
0000
0001
0000
0000
0000
1000
0000
0000
0100
,
0000
0010
0000
0000
0001
0000
1000
0000
0000
0001
0000
0000
0000
0000
1000
0000
,
0010
0010
0000
0000
0100
0000
0100
0000
0001
0001
0000
0000
1000
0000
1000
0000
,
0100
0100
0000
0000
0001
0000
0001
0000
0010
0010
0000
0000
0000
0000
1000
0000
,
0000
0000
0010
0000
0000
0000
0000
0000
0001
0000
0000
0000
0100
0000
0000
0000
0000
0000
0000
0000
0000
0000
0000
0000
0010
0000
0000
0000
0001
0000
0000
0100
,
0000
1000
0000
0000
0100
0000
1000
0000
0000
0100
0000
0000
0000
0000
0010
0000
,
0100
0100
0000
0000
0010
0000
0010
0000
1000
1000
0000
0000
0001
0000
0001
0000
,
0010
0010
0000
0000
1000
0000
1000
0000
0100
0100
0000
0000
0000
0000
0010
0000
,
0000
0000
0001
0000
0000
0000
0000
0000
1000
0000
0000
0000
0001
0000
0000
0000
0000
0000
0000
0000
0000
0000
0000
0000
0100
0000
0000
0000
0001
0000
0000
0010
,
0000
0001
0000
0000
1000
0000
0100
0000
0000
0010
0000
0000
0000
0000
1000
0000
,
0010
0010
0000
0000
1000
0000
1000
0000
0001
0001
0000
0000
1000
0000
1000
0000
,
0010
0010
0000
0000
0001
0000
0001
0000
1000
1000
0000
0000
0000
0000
1001
0000
;
